Terminator Salvation.2009.UHD.BluRay.2160p.HDR.DTS-HDMA.5.1.HEVC-...

  • Category Movies
  • Type UHD
  • Language English
  • Total size 14.2 GB
  • Uploaded By SaM
  • Downloads 620
  • Last checked 1 hour ago
  • Date uploaded 2 years ago
  • Seeders 12
  • Leechers 15

Infohash : 7A6856EAE445542D1FF79C92C5C629601C79FE1D


https://www.ettv.to/torrent/647741/terminator-salvation-2009-uhd-bluray-2160p-hdr-dts-hdma-5-1-hevc-ddr





SPECS

Source : UHD Blu-ray

Format : Matroska
File size : 14.2 GiB
Duration : 1 h 54 min
Overall bit rate mode : Variable
Overall bit rate : 17.7 Mb/s

Video
Format : HEVC/HDR
Bit rate : 15.0 Mb/s
Width : 3 840 pixels
Height : 1 600 pixels
Bit depth : 10 bits
Color primaries : BT.2020
Transfer characteristics : PQ
Matrix coefficients : BT.2020 non-constant
Mastering display color primaries : Display P3
Mastering display luminance : min: 0.0001 cd/m2, max: 1000 cd/m2
Maximum Content Light Level : 992 cd/m2
Maximum Frame-Average Light Level : 523 cd/m2


Audio
Format : DTS XLL
Format/Info : Digital Theater Systems
Commercial name : DTS-HD Master Audio
Codec ID : A_DTS
Duration : 1 h 54 min
Bit rate mode : Variable
Bit rate : 2 424 kb/s
Channel(s) : 6 channels
Channel layout : C L R Ls Rs LFE
Sampling rate : 48.0 kHz
Frame rate : 93.750 FPS (512 SPF)
Bit depth : 16 bits
Compression mode : Lossless
Stream size : 1.94 GiB (14%)
Language : English
Default : Yes
Forced : No

Text #1
ID : 3
Format : PGS
Muxing mode : zlib
Codec ID : S_HDMV/PGS
Codec ID/Info : Picture based subtitle format used on BDs/HD-DVDs
Duration : 1 h 44 min
Bit rate : 18.4 kb/s
Count of elements : 1558
Stream size : 13.8 MiB (0%)
Title : Full
Language : English
Default : No
Forced : No

Text #2
ID : 4
Format : PGS
Muxing mode : zlib
Codec ID : S_HDMV/PGS
Codec ID/Info : Picture based subtitle format used on BDs/HD-DVDs
Duration : 1 h 46 min
Bit rate : 23.5 kb/s
Count of elements : 2145
Stream size : 17.9 MiB (0%)
Title : SDH
Language : English
Default : No
Forced : No

Text #3
ID : 5
Format : PGS
Muxing mode : zlib
Codec ID : S_HDMV/PGS
Codec ID/Info : Picture based subtitle format used on BDs/HD-DVDs
Duration : 1 h 52 min
Bit rate : 14.7 kb/s
Count of elements : 1606
Stream size : 11.9 MiB (0%)
Language : French
Default : No
Forced : No

Text #4
ID : 6
Format : PGS
Muxing mode : zlib
Codec ID : S_HDMV/PGS
Codec ID/Info : Picture based subtitle format used on BDs/HD-DVDs
Duration : 1 h 52 min
Bit rate : 16.1 kb/s
Count of elements : 1572
Stream size : 13.0 MiB (0%)
Language : Spanish
Default : No
Forced : No

Text #5
ID : 7
Format : PGS
Muxing mode : zlib
Codec ID : S_HDMV/PGS
Codec ID/Info : Picture based subtitle format used on BDs/HD-DVDs
Duration : 1 h 53 min
Bit rate : 17.3 kb/s
Count of elements : 1618
Stream size : 14.1 MiB (0%)
Language : Spanish
Default : No
Forced : No

Text #6
ID : 8
Format : PGS
Muxing mode : zlib
Codec ID : S_HDMV/PGS
Codec ID/Info : Picture based subtitle format used on BDs/HD-DVDs
Duration : 1 h 53 min
Bit rate : 15.7 kb/s
Count of elements : 1598
Stream size : 12.8 MiB (0%)
Language : Portuguese
Default : No
Forced : No

Text #7
ID : 9
Format : PGS
Muxing mode : zlib
Codec ID : S_HDMV/PGS
Codec ID/Info : Picture based subtitle format used on BDs/HD-DVDs
Duration : 1 h 53 min
Bit rate : 18.4 kb/s
Count of elements : 1660
Stream size : 14.9 MiB (0%)
Language : Portuguese
Default : No
Forced : No

Text #8
ID : 10
Format : PGS
Muxing mode : zlib
Codec ID : S_HDMV/PGS
Codec ID/Info : Picture based subtitle format used on BDs/HD-DVDs
Duration : 1 h 44 min
Bit rate : 20.7 kb/s
Count of elements : 1640
Stream size : 15.5 MiB (0%)
Language : Italian
Default : No
Forced : No

Text #9
ID : 11
Format : PGS
Muxing mode : zlib
Codec ID : S_HDMV/PGS
Codec ID/Info : Picture based subtitle format used on BDs/HD-DVDs
Duration : 1 h 44 min
Bit rate : 19.8 kb/s
Count of elements : 1760
Stream size : 14.9 MiB (0%)
Language : German
Default : No
Forced : No

Text #10
ID : 12
Format : PGS
Muxing mode : zlib
Codec ID : S_HDMV/PGS
Codec ID/Info : Picture based subtitle format used on BDs/HD-DVDs
Duration : 1 h 52 min
Bit rate : 17.5 kb/s
Count of elements : 1526
Stream size : 14.1 MiB (0%)
Language : Dutch
Default : No
Forced : No

Text #11
ID : 13
Format : PGS
Muxing mode : zlib
Codec ID : S_HDMV/PGS
Codec ID/Info : Picture based subtitle format used on BDs/HD-DVDs
Duration : 1 h 44 min
Bit rate : 16.7 kb/s
Count of elements : 1572
Stream size : 12.5 MiB (0%)
Language : Swedish
Default : No
Forced : No

Text #12
ID : 14
Format : PGS
Muxing mode : zlib
Codec ID : S_HDMV/PGS
Codec ID/Info : Picture based subtitle format used on BDs/HD-DVDs
Duration : 1 h 52 min
Bit rate : 14.4 kb/s
Count of elements : 1512
Stream size : 11.6 MiB (0%)
Language : Norwegian
Default : No
Forced : No

Text #13
ID : 15
Format : PGS
Muxing mode : zlib
Codec ID : S_HDMV/PGS
Codec ID/Info : Picture based subtitle format used on BDs/HD-DVDs
Duration : 1 h 44 min
Bit rate : 17.6 kb/s
Count of elements : 1498
Stream size : 13.2 MiB (0%)
Language : Danish
Default : No
Forced : No

Text #14
ID : 16
Format : PGS
Muxing mode : zlib
Codec ID : S_HDMV/PGS
Codec ID/Info : Picture based subtitle format used on BDs/HD-DVDs
Duration : 1 h 44 min
Bit rate : 16.5 kb/s
Count of elements : 1510
Stream size : 12.4 MiB (0%)
Language : Finnish
Default : No
Forced : No

Text #15
ID : 17
Format : PGS
Muxing mode : zlib
Codec ID : S_HDMV/PGS
Codec ID/Info : Picture based subtitle format used on BDs/HD-DVDs
Duration : 1 h 52 min
Bit rate : 18.9 kb/s
Count of elements : 1714
Stream size : 15.2 MiB (0%)
Language : Russian
Default : No
Forced : No

Text #16
ID : 18
Format : PGS
Muxing mode : zlib
Codec ID : S_HDMV/PGS
Codec ID/Info : Picture based subtitle format used on BDs/HD-DVDs
Duration : 1 h 52 min
Bit rate : 15.1 kb/s
Count of elements : 1600
Stream size : 12.1 MiB (0%)
Language : Czech
Default : No
Forced : No

Text #17
ID : 19
Format : PGS
Muxing mode : zlib
Codec ID : S_HDMV/PGS
Codec ID/Info : Picture based subtitle format used on BDs/HD-DVDs
Duration : 1 h 52 min
Bit rate : 16.1 kb/s
Count of elements : 1604
Stream size : 13.0 MiB (0%)
Language : Polish
Default : No
Forced : No

Text #18
ID : 20
Format : PGS
Muxing mode : zlib
Codec ID : S_HDMV/PGS
Codec ID/Info : Picture based subtitle format used on BDs/HD-DVDs
Duration : 1 h 52 min
Bit rate : 15.6 kb/s
Count of elements : 1568
Stream size : 12.6 MiB (0%)
Language : Hungarian
Default : No
Forced : No

Text #19
ID : 21
Format : PGS
Muxing mode : zlib
Codec ID : S_HDMV/PGS
Codec ID/Info : Picture based subtitle format used on BDs/HD-DVDs
Duration : 1 h 53 min
Bit rate : 17.5 kb/s
Count of elements : 1620
Stream size : 14.2 MiB (0%)
Language : Romanian
Default : No
Forced : No

Text #20
ID : 22
Format : PGS
Muxing mode : zlib
Codec ID : S_HDMV/PGS
Codec ID/Info : Picture based subtitle format used on BDs/HD-DVDs
Duration : 1 h 44 min
Bit rate : 17.4 kb/s
Count of elements : 1624
Stream size : 13.1 MiB (0%)
Language : Lithuanian
Default : No
Forced : No

Text #21
ID : 23
Format : PGS
Muxing mode : zlib
Codec ID : S_HDMV/PGS
Codec ID/Info : Picture based subtitle format used on BDs/HD-DVDs
Duration : 1 h 44 min
Bit rate : 17.2 kb/s
Count of elements : 1650
Stream size : 12.9 MiB (0%)
Language : Slovenian
Default : No
Forced : No

Text #22
ID : 24
Format : PGS
Muxing mode : zlib
Codec ID : S_HDMV/PGS
Codec ID/Info : Picture based subtitle format used on BDs/HD-DVDs
Duration : 1 h 44 min
Bit rate : 18.3 kb/s
Count of elements : 1650
Stream size : 13.7 MiB (0%)
Language : Slovak
Default : No
Forced : No

Text #23
ID : 25
Format : PGS
Muxing mode : zlib
Codec ID : S_HDMV/PGS
Codec ID/Info : Picture based subtitle format used on BDs/HD-DVDs
Duration : 1 h 44 min
Bit rate : 19.0 kb/s
Count of elements : 1560
Stream size : 14.2 MiB (0%)
Language : Estonian
Default : No
Forced : No

Text #24
ID : 26
Format : PGS
Muxing mode : zlib
Codec ID : S_HDMV/PGS
Codec ID/Info : Picture based subtitle format used on BDs/HD-DVDs
Duration : 1 h 44 min
Bit rate : 18.9 kb/s
Count of elements : 1560
Stream size : 14.2 MiB (0%)
Language : Greek
Default : No
Forced : No

Text #25
ID : 27
Format : PGS
Muxing mode : zlib
Codec ID : S_HDMV/PGS
Codec ID/Info : Picture based subtitle format used on BDs/HD-DVDs
Duration : 1 h 44 min
Bit rate : 18.9 kb/s
Count of elements : 1634
Stream size : 14.2 MiB (0%)
Language : Turkish
Default : No
Forced : No

Text #26
ID : 28
Format : PGS
Muxing mode : zlib
Codec ID : S_HDMV/PGS
Codec ID/Info : Picture based subtitle format used on BDs/HD-DVDs
Duration : 1 h 44 min
Bit rate : 10.7 kb/s
Count of elements : 1650
Stream size : 8.02 MiB (0%)
Language : Arabic
Default : No
Forced : No

Text #27
ID : 29
Format : PGS
Muxing mode : zlib
Codec ID : S_HDMV/PGS
Codec ID/Info : Picture based subtitle format used on BDs/HD-DVDs
Duration : 1 h 44 min
Bit rate : 15.5 kb/s
Count of elements : 1634
Stream size : 11.7 MiB (0%)
Language : Chinese
Default : No
Forced : No

Text #28
ID : 30
Format : PGS
Muxing mode : zlib
Codec ID : S_HDMV/PGS
Codec ID/Info : Picture based subtitle format used on BDs/HD-DVDs
Duration : 1 h 44 min
Bit rate : 15.4 kb/s
Count of elements : 1634
Stream size : 11.5 MiB (0%)
Language : Chinese
Default : No
Forced : No

Text #29
ID : 31
Format : PGS
Muxing mode : zlib
Codec ID : S_HDMV/PGS
Codec ID/Info : Picture based subtitle format used on BDs/HD-DVDs
Duration : 1 h 44 min
Bit rate : 17.9 kb/s
Count of elements : 1650
Stream size : 13.4 MiB (0%)
Language : Thai
Default : No
Forced : No

Text #30
ID : 32
Format : PGS
Muxing mode : zlib
Codec ID : S_HDMV/PGS
Codec ID/Info : Picture based subtitle format used on BDs/HD-DVDs
Duration : 1 h 52 min
Bit rate : 14.6 kb/s
Count of elements : 1652
Stream size : 11.8 MiB (0%)
Language : Hindi

[email protected]

Files:

Terminator Salvation.2009.UHD.BluRay.2160p.HDR.DTS-HDMA.5.1.HEVC-DDR
  • Terminator Salvation.2009.UHD.BluRay.2160p.HDR.DTS-HDMA.5.1.HEVC-DDR.mkv (14.2 GB)
  • 0Torrent downloaded from Desitorrents.tv.txt (0.0 KB)
  • 0A DDR Release !!!.txt (0.3 KB)

Comments

Code:

  • udp://9.rarbg.to:2740/announce
  • udp://9.rarbg.me:2710/announce
  • udp://tracker.internetwarriors.net:1337/announce
  • udp://tracker.uw0.xyz:6969/announce
  • udp://tracker.cyberia.is:6969/announce
  • udp://tracker.moeking.me:6969/announce
  • udp://tracker.torrent.eu.org:451
  • udp://explodie.org:6969/announce
  • udp://ipv4.tracker.harry.lu:80/announce
  • udp://tracker.opentrackr.org:1337/announce
  • udp://tracker.tiny-vps.com:6969/announce
  • udp://tracker.coppersurfer.tk:6969/announce
  • udp://exodus.desync.com:6969/announce
  • udp://open.demonii.si:1337/announce
  • udp://tracker.pirateparty.gr:6969/announce