South.Park.The.Streaming.Wars.2022.1080p.WEB.H264-NAISU

  • Category Movies
  • Type HD
  • Language English
  • Total size 1.4 GB
  • Uploaded By TheMorozko
  • Downloads 11782
  • Last checked 2 weeks ago
  • Date uploaded 3 weeks ago
  • Seeders 638
  • Leechers 27

South Park: The Streaming Wars

AnimationComedy

Cartman locks horns with his mom in a battle of wills while an epic conflict unfolds that threatens South Park’s very existence.

Infohash : 7C1F28AC5F683EB7EF17F2095E7A8134F982CEC5


Screens... (click to enlarge):


Screenshots:

South.Park.The.Streaming.Wars.2022.1080p.WEB.H264-NAISU

Size: 1425M
Files: 10F
Date: 2022-06-01
Duration: 48 min 8 s

Source: Web
Encoding: H264
Bitrate: 4 043 kb/s
Audio Format: E-AC-3 (Dolby Digital Plus)
Audio Rate: 640 kb/s @ 6 channels
Audio Lang: English
Sub count: 1
Subtitles: English

Mediainfo

Quote:

Video
ID : 1
Format : AVC
Format/Info : Advanced Video Codec
Format profile : [email protected]
Format settings : CABAC / 4 Ref Frames
Format settings, CABAC : Yes
Format settings, Reference frames : 4 frames
Codec ID : V_MPEG4/ISO/AVC
Duration : 48 min 8 s
Bit rate mode : Constant
Bit rate : 3 323 kb/s
Nominal bit rate : 10 000 kb/s
Width : 1 920 pixels
Height : 1 080 pixels
Display aspect ratio : 16:9
Frame rate mode : Constant
Frame rate : 24.000 FPS
Color space : YUV
Chroma subsampling : 4:2:0
Bit depth : 8 bits
Scan type : Progressive
Bits/(Pixel*Frame) : 0.067
Stream size : 1.12 GiB (82%)
Default : Yes
Forced : No
Color range : Limited
Color primaries : BT.709
Transfer characteristics : BT.709
Matrix coefficients : BT.709

Audio
ID : 2
Format : E-AC-3
Format/Info : Enhanced AC-3
Commercial name : Dolby Digital Plus
Codec ID : A_EAC3
Duration : 48 min 8 s
Bit rate mode : Constant
Bit rate : 640 kb/s
Channel(s) : 6 channels
Channel layout : L R C LFE Ls Rs
Sampling rate : 48.0 kHz
Frame rate : 31.250 FPS (1536 SPF)
Compression mode : Lossy
Stream size : 220 MiB (16%)
Language : English
Service kind : Complete Main
Default : Yes
Forced : No

Text
ID : 3
Format : UTF-8
Codec ID : S_TEXT/UTF8
Codec ID/Info : UTF-8 Plain Text
Title : English [SDH]
Language : English
Default : No
Forced : No

Files:

South.Park.The.Streaming.Wars.2022.1080p.WEB.H264-NAISU[rarbg]
  • RARBG.txt (0.0 KB)
  • RARBG_DO_NOT_MIRROR.exe (0.1 KB)
  • south.park.the.streaming.wars.2022.1080p.web.h264-naisu.mkv (1.4 GB)
  • south.park.the.streaming.wars.2022.1080p.web.h264-naisu.nfo (0.3 KB)

Comments

Code:

  • http://tracker.trackerfix.com:80/announce
  • udp://9.rarbg.me:2800/announce
  • udp://9.rarbg.to:2740/announce
  • udp://tracker.thinelephant.org:12780/announce
  • udp://tracker.fatkhoala.org:13780/announce