Obi-Wan.Kenobi.S01E03.WEBRip.x264-ION10

  • Category TV
  • Type SD
  • Language English
  • Total size 411.8 MB
  • Uploaded By TheMorozko
  • Downloads 11800
  • Last checked 2 weeks ago
  • Date uploaded 3 weeks ago
  • Seeders 1085
  • Leechers 70

Infohash : 8795934E05113326A1DE474710CB14C9CC97A4CA


Screens... (click to enlarge):











Infolink -> https://www.imdb.com/title/tt8466564/

Quote:

Mediainfo
Video
ID : 1
Format : AVC
Format/Info : Advanced Video Codec
Format profile : [email protected]
Format settings : CABAC / 5 Ref Frames
Format settings, CABAC : Yes
Format settings, Reference frames : 5 frames
Codec ID : avc1
Codec ID/Info : Advanced Video Coding
Duration : 44 min 34 s
Bit rate : 1 028 kb/s
Nominal bit rate : 1 100 kb/s
Width : 720 pixels
Height : 400 pixels
Display aspect ratio : 16:9
Frame rate mode : Constant
Frame rate : 24.000 FPS
Color space : YUV
Chroma subsampling : 4:2:0
Bit depth : 8 bits
Scan type : Progressive
Bits/(Pixel*Frame) : 0.149
Stream size : 328 MiB (80%)
Title : RARBG - Obi-Wan.Kenobi.S01E03.WEBRip.x264-ION10
Writing library : x264 core 152 r2851M ba24899
Encoding settings : cabac=1 / ref=5 / deblock=1:-1:-1 / analyse=0x3:0x113 / me=umh / subme=9 / psy=1 / psy_rd=1.00:0.15 / mixed_ref=1 / me_range=16 / chroma_me=1 / trellis=2 / 8x8dct=1 / cqm=0 / deadzone=21,11 / fast_pskip=1 / chroma_qp_offset=-3 / threads=12 / lookahead_threads=1 / sliced_threads=0 / nr=0 / decimate=1 / interlaced=0 / bluray_compat=0 / constrained_intra=0 / bframes=3 / b_pyramid=2 / b_adapt=2 / b_bias=0 / direct=3 / weightb=1 / open_gop=0 / weightp=2 / keyint=250 / keyint_min=24 / scenecut=40 / intra_refresh=0 / rc_lookahead=50 / rc=abr / mbtree=1 / bitrate=1100 / ratetol=1.0 / qcomp=0.60 / qpmin=0 / qpmax=69 / qpstep=4 / ip_ratio=1.40 / aq=1:1.00
Encoded date : UTC 2022-06-01 07:00:35
Tagged date : UTC 2022-06-01 07:00:35
Codec configuration box : avcC

Audio
ID : 2
Format : AAC LC
Format/Info : Advanced Audio Codec Low Complexity
Codec ID : mp4a-40-2
Duration : 44 min 34 s
Duration_LastFrame : -11 ms
Bit rate mode : Constant
Bit rate : 256 kb/s
Channel(s) : 2 channels
Channel layout : L R
Sampling rate : 48.0 kHz
Frame rate : 46.875 FPS (1024 SPF)
Compression mode : Lossy
Stream size : 81.6 MiB (20%)
Title : RARBG - Obi-Wan.Kenobi.S01E03.WEBRip.x264-ION10
Language : English
Default : Yes
Alternate group : 1
Encoded date : UTC 2022-06-01 07:00:35
Tagged date : UTC 2022-06-01 07:00:35

Files:

Obi-Wan.Kenobi.S01E03.WEBRip.x264-ION10
  • Obi-Wan.Kenobi.S01E03.WEBRip.x264-ION10.mp4 (411.1 MB)
  • RARBG.txt (0.0 KB)
  • RARBG_DO_NOT_MIRROR.exe (0.1 KB)
  • Subs
    • 10_French.srt (23.9 KB)
    • 11_French.srt (24.3 KB)
    • 12_Greek.srt (32.8 KB)
    • 13_Italian.srt (24.5 KB)
    • 14_Japanese.srt (23.1 KB)
    • 15_Korean.srt (25.4 KB)
    • 16_Hungarian.srt (23.4 KB)
    • 17_Dutch.srt (22.0 KB)
    • 18_nor.srt (23.4 KB)
    • 19_Polish.srt (23.0 KB)
    • 20_Portuguese.srt (23.9 KB)
    • 21_Portuguese.srt (25.1 KB)
    • 22_Romanian.srt (24.1 KB)
    • 23_slo.srt (24.1 KB)
    • 24_Finnish.srt (24.0 KB)
    • 25_Swedish.srt (21.8 KB)
    • 26_Turkish.srt (25.0 KB)
    • 27_Czech.srt (23.4 KB)
    • 2_Chinese.srt (23.0 KB)
    • 3_Chinese.srt (23.3 KB)
    • 4_Chinese.srt (21.8 KB)
    • 5_Danish.srt (20.0 KB)
    • 6_German.srt (26.0 KB)
    • 7_English.srt (30.1 KB)
    • 8_Spanish.srt (24.3 KB)
    • 9_Spanish.srt (24.3 KB)

There are currently no comments. Feel free to leave one :)

Code:

  • http://tracker.trackerfix.com:80/announce
  • udp://9.rarbg.me:2990/announce
  • udp://9.rarbg.to:2970/announce
  • udp://tracker.thinelephant.org:12790/announce
  • udp://tracker.slowcheetah.org:14730/announce