The.Boys.S03E04.Glorious.Five.Year.Plan.1080p.AMZN.WEBRip.DDP5.1....

  • Category TV
  • Type HD
  • Language English
  • Total size 3.9 GB
  • Uploaded By TheMorozko
  • Downloads 22758
  • Last checked 6 days ago
  • Date uploaded 2 weeks ago
  • Seeders 3496
  • Leechers 768

Infohash : AF765EF86DFCA3270D181F6B618F331056B73FEB


Screens... :




The.Boys.S03E04.Glorious.Five.Year.Plan.1080p.AMZN.WEBRip.DDP5.1.x264-NTb

Infolink -> https://www.imdb.com/title/tt1190634/

Quote:

Mediainfo
Video
ID : 1
Format : AVC
Format/Info : Advanced Video Codec
Format profile : [email protected]
Format settings : CABAC / 4 Ref Frames
Format settings, CABAC : Yes
Format settings, Reference frames : 4 frames
Codec ID : V_MPEG4/ISO/AVC
Duration : 1 h 1 min
Bit rate mode : Constant
Bit rate : 8 361 kb/s
Nominal bit rate : 10 000 kb/s
Width : 1 920 pixels
Height : 1 080 pixels
Display aspect ratio : 16:9
Frame rate mode : Constant
Frame rate : 23.976 (24000/1001) FPS
Color space : YUV
Chroma subsampling : 4:2:0
Bit depth : 8 bits
Scan type : Progressive
Bits/(Pixel*Frame) : 0.168
Stream size : 3.59 GiB (93%)
Default : Yes
Forced : No
Color range : Limited
Color primaries : BT.709
Transfer characteristics : BT.709
Matrix coefficients : BT.709

Audio
ID : 2
Format : E-AC-3
Format/Info : Enhanced AC-3
Commercial name : Dolby Digital Plus
Codec ID : A_EAC3
Duration : 1 h 1 min
Bit rate mode : Constant
Bit rate : 640 kb/s
Channel(s) : 6 channels
Channel layout : L R C LFE Ls Rs
Sampling rate : 48.0 kHz
Frame rate : 31.250 FPS (1536 SPF)
Compression mode : Lossy
Stream size : 281 MiB (7%)
Language : English
Service kind : Complete Main
Default : Yes
Forced : No

Text #1
ID : 3
Format : UTF-8
Codec ID : S_TEXT/UTF8
Codec ID/Info : UTF-8 Plain Text
Duration : 9 min 18 s
Bit rate : 5 b/s
Count of elements : 26
Stream size : 408 Bytes (0%)
Title : Forced
Language : English
Default : Yes
Forced : Yes

Text #2
ID : 4
Format : UTF-8
Codec ID : S_TEXT/UTF8
Codec ID/Info : UTF-8 Plain Text
Duration : 59 min 31 s
Bit rate : 59 b/s
Count of elements : 906
Stream size : 26.1 KiB (0%)
Language : English
Default : No
Forced : No

Text #3
ID : 5
Format : UTF-8
Codec ID : S_TEXT/UTF8
Codec ID/Info : UTF-8 Plain Text
Duration : 59 min 31 s
Bit rate : 69 b/s
Count of elements : 1074
Stream size : 30.4 KiB (0%)
Title : SDH
Language : English
Default : No
Forced : No

Text #4
ID : 6
Format : UTF-8
Codec ID : S_TEXT/UTF8
Codec ID/Info : UTF-8 Plain Text
Duration : 59 min 44 s
Bit rate : 86 b/s
Count of elements : 757
Stream size : 37.7 KiB (0%)
Language : Arabic
Default : No
Forced : No

Text #5
ID : 7
Format : UTF-8
Codec ID : S_TEXT/UTF8
Codec ID/Info : UTF-8 Plain Text
Duration : 59 min 44 s
Bit rate : 51 b/s
Count of elements : 754
Stream size : 22.5 KiB (0%)
Language : Czech
Default : No
Forced : No

Text #6
ID : 8
Format : UTF-8
Codec ID : S_TEXT/UTF8
Codec ID/Info : UTF-8 Plain Text
Duration : 59 min 44 s
Bit rate : 51 b/s
Count of elements : 751
Stream size : 22.5 KiB (0%)
Language : Danish
Default : No
Forced : No

Text #7
ID : 9
Format : UTF-8
Codec ID : S_TEXT/UTF8
Codec ID/Info : UTF-8 Plain Text
Duration : 59 min 44 s
Bit rate : 51 b/s
Count of elements : 754
Stream size : 22.5 KiB (0%)
Language : German
Default : No
Forced : No

Text #8
ID : 10
Format : UTF-8
Codec ID : S_TEXT/UTF8
Codec ID/Info : UTF-8 Plain Text
Duration : 59 min 44 s
Bit rate : 94 b/s
Count of elements : 757
Stream size : 41.4 KiB (0%)
Language : Greek
Default : No
Forced : No

Text #9
ID : 11
Format : UTF-8
Codec ID : S_TEXT/UTF8
Codec ID/Info : UTF-8 Plain Text
Duration : 59 min 44 s
Bit rate : 51 b/s
Count of elements : 755
Stream size : 22.3 KiB (0%)
Title : Latinoamérica
Language : Spanish
Default : No
Forced : No

Text #10
ID : 12
Format : UTF-8
Codec ID : S_TEXT/UTF8
Codec ID/Info : UTF-8 Plain Text
Duration : 59 min 44 s
Bit rate : 50 b/s
Count of elements : 751
Stream size : 21.9 KiB (0%)
Title : España
Language : Spanish
Default : No
Forced : No

Text #11
ID : 13
Format : UTF-8
Codec ID : S_TEXT/UTF8
Codec ID/Info : UTF-8 Plain Text
Duration : 59 min 44 s
Bit rate : 46 b/s
Count of elements : 753
Stream size : 20.5 KiB (0%)
Language : Finnish
Default : No
Forced : No

Text #12
ID : 14
Format : UTF-8
Codec ID : S_TEXT/UTF8
Codec ID/Info : UTF-8 Plain Text
Duration : 59 min 44 s
Bit rate : 52 b/s
Count of elements : 743
Stream size : 23.0 KiB (0%)
Language : fil
Default : No
Forced : No

Text #13
ID : 15
Format : UTF-8
Codec ID : S_TEXT/UTF8
Codec ID/Info : UTF-8 Plain Text
Duration : 59 min 44 s
Bit rate : 51 b/s
Count of elements : 749
Stream size : 22.5 KiB (0%)
Language : French
Default : No
Forced : No

Text #14
ID : 16
Format : UTF-8
Codec ID : S_TEXT/UTF8
Codec ID/Info : UTF-8 Plain Text
Duration : 59 min 44 s
Bit rate : 84 b/s
Count of elements : 756
Stream size : 37.1 KiB (0%)
Language : Hebrew
Default : No
Forced : No

Text #15
ID : 17
Format : UTF-8
Codec ID : S_TEXT/UTF8
Codec ID/Info : UTF-8 Plain Text
Duration : 59 min 44 s
Bit rate : 127 b/s
Count of elements : 757
Stream size : 55.6 KiB (0%)
Language : Hindi
Default : No
Forced : No

Text #16
ID : 18
Format : UTF-8
Codec ID : S_TEXT/UTF8
Codec ID/Info : UTF-8 Plain Text
Duration : 59 min 44 s
Bit rate : 51 b/s
Count of elements : 751
Stream size : 22.5 KiB (0%)
Language : Hungarian
Default : No
Forced : No

Text #17
ID : 19
Format : UTF-8
Codec ID : S_TEXT/UTF8
Codec ID/Info : UTF-8 Plain Text
Duration : 59 min 44 s
Bit rate : 48 b/s
Count of elements : 756
Stream size : 21.4 KiB (0%)
Language : Indonesian
Default : No
Forced : No

Text #18
ID : 20
Format : UTF-8
Codec ID : S_TEXT/UTF8
Codec ID/Info : UTF-8 Plain Text
Duration : 59 min 44 s
Bit rate : 50 b/s
Count of elements : 752
Stream size : 22.1 KiB (0%)
Language : Italian
Default : No
Forced : No

Text #19
ID : 21
Format : UTF-8
Codec ID : S_TEXT/UTF8
Codec ID/Info : UTF-8 Plain Text
Duration : 59 min 44 s
Bit rate : 47 b/s
Count of elements : 704
Stream size : 21.0 KiB (0%)
Language : Japanese
Default : No
Forced : No

Text #20
ID : 22
Format : UTF-8
Codec ID : S_TEXT/UTF8
Codec ID/Info : UTF-8 Plain Text
Duration : 59 min 44 s
Bit rate : 67 b/s
Count of elements : 757
Stream size : 29.5 KiB (0%)
Language : Korean
Default : No
Forced : No

Text #21
ID : 23
Format : UTF-8
Codec ID : S_TEXT/UTF8
Codec ID/Info : UTF-8 Plain Text
Duration : 59 min 44 s
Bit rate : 47 b/s
Count of elements : 753
Stream size : 20.9 KiB (0%)
Language : Malay
Default : No
Forced : No

Text #22
ID : 24
Format : UTF-8
Codec ID : S_TEXT/UTF8
Codec ID/Info : UTF-8 Plain Text
Duration : 59 min 44 s
Bit rate : 49 b/s
Count of elements : 749
Stream size : 21.5 KiB (0%)
Language : Norwegian Bokmal
Default : No
Forced : No

Text #23
ID : 25
Format : UTF-8
Codec ID : S_TEXT/UTF8
Codec ID/Info : UTF-8 Plain Text
Duration : 59 min 44 s
Bit rate : 46 b/s
Count of elements : 730
Stream size : 20.5 KiB (0%)
Language : Dutch
Default : No
Forced : No

Text #24
ID : 26
Format : UTF-8
Codec ID : S_TEXT/UTF8
Codec ID/Info : UTF-8 Plain Text
Duration : 59 min 44 s
Bit rate : 48 b/s
Count of elements : 748
Stream size : 21.0 KiB (0%)
Language : Polish
Default : No
Forced : No

Text #25
ID : 27
Format : UTF-8
Codec ID : S_TEXT/UTF8
Codec ID/Info : UTF-8 Plain Text
Duration : 59 min 44 s
Bit rate : 49 b/s
Count of elements : 753
Stream size : 21.5 KiB (0%)
Title : Brasil
Language : Portuguese
Default : No
Forced : No

Text #26
ID : 28
Format : UTF-8
Codec ID : S_TEXT/UTF8
Codec ID/Info : UTF-8 Plain Text
Duration : 59 min 44 s
Bit rate : 53 b/s
Count of elements : 752
Stream size : 23.2 KiB (0%)
Title : Portugal
Language : Portuguese
Default : No
Forced : No

Text #27
ID : 29
Format : UTF-8
Codec ID : S_TEXT/UTF8
Codec ID/Info : UTF-8 Plain Text
Duration : 59 min 44 s
Bit rate : 55 b/s
Count of elements : 756
Stream size : 24.3 KiB (0%)
Language : Romanian
Default : No
Forced : No

Text #28
ID : 30
Format : UTF-8
Codec ID : S_TEXT/UTF8
Codec ID/Info : UTF-8 Plain Text
Duration : 59 min 44 s
Bit rate : 83 b/s
Count of elements : 749
Stream size : 36.6 KiB (0%)
Language : Russian
Default : No
Forced : No

Text #29
ID : 31
Format : UTF-8
Codec ID : S_TEXT/UTF8
Codec ID/Info : UTF-8 Plain Text
Duration : 59 min 44 s
Bit rate : 51 b/s
Count of elements : 757
Stream size : 22.7 KiB (0%)
Language : Swedish
Default : No
Forced : No

Text #30
ID : 32
Format : UTF-8
Codec ID : S_TEXT/UTF8
Codec ID/Info : UTF-8 Plain Text
Duration : 59 min 44 s
Bit rate : 132 b/s
Count of elements : 757
Stream size : 57.8 KiB (0%)
Language : Tamil
Default : No
Forced : No

Text #31
ID : 33
Format : UTF-8
Codec ID : S_TEXT/UTF8
Codec ID/Info : UTF-8 Plain Text
Duration : 59 min 44 s
Bit rate : 130 b/s
Count of elements : 757
Stream size : 57.2 KiB (0%)
Language : Telugu
Default : No
Forced : No

Text #32
ID : 34
Format : UTF-8
Codec ID : S_TEXT/UTF8
Codec ID/Info : UTF-8 Plain Text
Duration : 59 min 44 s
Bit rate : 135 b/s
Count of elements : 757
Stream size : 59.3 KiB (0%)
Language : Thai
Default : No
Forced : No

Text #33
ID : 35
Format : UTF-8
Codec ID : S_TEXT/UTF8
Codec ID/Info : UTF-8 Plain Text
Duration : 59 min 44 s
Bit rate : 51 b/s
Count of elements : 754
Stream size : 22.6 KiB (0%)
Language : Turkish
Default : No
Forced : No

Text #34
ID : 36
Format : UTF-8
Codec ID : S_TEXT/UTF8
Codec ID/Info : UTF-8 Plain Text
Duration : 59 min 44 s
Bit rate : 49 b/s
Count of elements : 755
Stream size : 21.7 KiB (0%)
Title : 简体
Language : Chinese
Default : No
Forced : No

Text #35
ID : 37
Format : UTF-8
Codec ID : S_TEXT/UTF8
Codec ID/Info : UTF-8 Plain Text
Duration : 59 min 44 s
Bit rate : 46 b/s
Count of elements : 756
Stream size : 20.5 KiB (0%)
Title : 繁體
Language : Chinese
Default : No
Forced : No

Menu
00:00:00.000 : en:Amazon Original
00:00:04.000 : en:Previously On
00:01:29.000 : en:Scene 3
00:01:44.000 : en:Scene 4
00:02:02.000 : en:Scene 5
00:02:31.000 : en:Scene 6
00:02:45.000 : en:Scene 7
00:03:48.000 : en:Scene 8
00:04:30.000 : en:Scene 9
00:05:41.000 : en:Scene 10
00:05:50.000 : en:Title Sequence
00:05:52.000 : en:Scene 12
00:06:03.000 : en:Scene 13
00:08:24.000 : en:Scene 14
00:08:34.000 : en:Scene 15
00:09:23.000 : en:Scene 16
00:11:01.000 : en:Scene 17
00:11:46.000 : en:Scene 18
00:12:51.000 : en:Scene 19
00:13:08.000 : en:Scene 20
00:13:25.000 : en:Scene 21
00:13:46.000 : en:Scene 22
00:13:51.000 : en:Scene 23
00:15:32.000 : en:Scene 24
00:16:05.000 : en:Scene 25
00:16:25.000 : en:Scene 26
00:17:46.000 : en:Scene 27
00:19:34.000 : en:Scene 28
00:21:18.000 : en:Scene 29
00:22:05.000 : en:Scene 30
00:23:13.000 : en:Scene 31
00:23:37.000 : en:Scene 32
00:24:44.000 : en:Scene 33
00:24:53.000 : en:Scene 34
00:26:50.000 : en:Scene 35
00:27:51.000 : en:Scene 36
00:31:04.000 : en:Scene 37
00:31:26.000 : en:Scene 38
00:31:33.000 : en:Scene 39
00:33:02.000 : en:Scene 40
00:33:21.000 : en:Scene 41
00:33:30.000 : en:Scene 42
00:34:36.000 : en:Scene 43
00:35:00.000 : en:Scene 44
00:36:59.000 : en:Scene 45
00:37:15.000 : en:Scene 46
00:39:17.000 : en:Scene 47
00:39:50.000 : en:Scene 48
00:41:29.000 : en:Scene 49
00:41:37.000 : en:Scene 50
00:43:58.000 : en:Scene 51
00:45:29.000 : en:Scene 52
00:46:04.000 : en:Scene 53
00:49:02.000 : en:Scene 54
00:50:28.000 : en:Scene 55
00:52:26.000 : en:Scene 56
00:52:39.000 : en:Scene 57
00:53:57.000 : en:Scene 58
00:54:45.000 : en:Scene 59
00:57:36.000 : en:End Credits

Files:

The.Boys.S03E04.Glorious.Five.Year.Plan.1080p.AMZN.WEBRip.DDP5.1.x264-NTb[rarbg]
  • RARBG.txt (0.0 KB)
  • RARBG_DO_NOT_MIRROR.exe (0.1 KB)
  • The.Boys.S03E04.Glorious.Five.Year.Plan.1080p.AMZN.WEB-DL.DDP5.1.H.264-NTb.mkv (3.9 GB)

Comments

Code:

  • http://tracker.trackerfix.com:80/announce
  • udp://9.rarbg.me:2940/announce
  • udp://9.rarbg.to:2810/announce
  • udp://tracker.tallpenguin.org:15730/announce
  • udp://tracker.thinelephant.org:12800/announce