Bhool Bhulaiyaa 2 (2022) Hindi 720p WEBRip x264 AAC ESub

  • Category Movies
  • Type Bollywood
  • Language Hindi
  • Total size 1.6 GB
  • Uploaded By krishh1337
  • Downloads 28856
  • Last checked 33 minutes ago
  • Date uploaded 1 week ago
  • Seeders 252
  • Leechers 99

Bhool Bhulaiyaa 2

HorrorComedy

Reet gets possessed by the feared witch Manjulika after the conman, who passes himself as a ghostbuster, Ruhan opens the spooky door, which he was categorically told not to.

Infohash : C2B717AEE042678930CCC6918534551BD5DCD62B




Video
ID : 1
Format : AVC
Format/Info : Advanced Video Codec
Format profile : [email protected]
Format settings : CABAC / 12 Ref Frames
Format settings, CABAC : Yes
Format settings, Reference frames : 12 frames
Codec ID : V_MPEG4/ISO/AVC
Duration : 2 h 21 min
Bit rate : 1 440 kb/s
Width : 1 280 pixels
Height : 536 pixels

Audio
ID : 2
Format : AAC LC
Format/Info : Advanced Audio Codec Low Complexity
Codec ID : A_AAC-2
Duration : 2 h 21 min
Bit rate : 125 kb/s
Channel(s) : 2 channels
Channel layout : L R
Sampling rate : 48.0 kHz
Frame rate : 46.875 FPS (1024 SPF)
Compression mode : Lossy
Stream size : 127 MiB (8%)
Title : NEW
Language : Hindi
Default : Yes
Forced : No

Text
ID : 3
Format : UTF-8
Codec ID : S_TEXT/UTF8
Codec ID/Info : UTF-8 Plain Text
Duration : 2 h 11 min
Bit rate : 56 b/s
Count of elements : 1950
Stream size : 54.1 KiB (0%)
Language : English
Default : Yes

Files:

  • Bhool Bhulaiyaa 2 (2022) Hindi 720p WEBRip x264 AAC ESub.mkv (1.6 GB)

Comments

Code:

  • udp://tracker.tiny-vps.com:6969/announce
  • udp://tracker.torrent.eu.org:451/announce
  • udp://exodus.desync.com:6969/announce
  • udp://explodie.org:6969/announce
  • udp://tracker.opentrackr.org:1337/announce
  • http://t.nyaatracker.com:80/announce
  • udp://open.stealth.si:80/announce
  • http://tracker.dler.org:6969/announce
  • udp://ipv4.tracker.harry.lu:80/announce
  • http://vps02.net.orel.ru:80/announce
  • udp://vibe.sleepyinternetfun.xyz:1738/announce
  • udp://tracker.bitsearch.to:1337/announce
  • udp://inferno.demonoid.is:3391/announce
  • udp://www.torrent.eu.org:451/announce
  • udp://open.tracker.cl:1337/announce