Top.Gear.Apocalypse.(2010).H265.1080p.DVDRip.EzzRips

  • Category Documentaries
  • Type Documentary
  • Language English
  • Total size 2.8 GB
  • Uploaded By bleprips
  • Downloads 259
  • Last checked 1 month ago
  • Date uploaded 1 month ago
  • Seeders 16
  • Leechers 1

Infohash : 94C8C6830CA23C235B1FBF2684496D306A007625


Movie Title: Top Gear: Apocalypse
Release Year: 2010
Age Rating: TV-PG
Genre: Documentary, Sport
Summary: Just what will motoring be like in a post apocalyptic world that's been blown to bits by nuclear bombs or a massive comet? It's a burning question that's on literally nobody's mind, and we give you all the answers in this brand new, incredibly cheerful Top Gear DVD. Embarking on a terrifying journey into the future, we show you how to drive to work in the perpetual darkness of a Nuclear Winter, how to make motor sport exciting when there's only two racing drivers left alive, and, in a world where all cars are bristling with weapons, how to survive the savage, explosive fury of a Doomsday M.O.T test. And amongst all the nuclear carnage, we also tackle the ultimate petrolhead's dilemma - what cars would you take for a final drive if there was only one barrel of petrol left on the planet? The explosions are huge, the cars are superb, so relax and enjoy. PS. This frightening vision of a post nuclear world is backed up by top scientists, in case you think it's us just cocking about.
IMDb Rating: 7.0/10 https://www.imdb.com/title/tt1800759/?ref_=nv_sr_srsg_0
Director: Phil Churchward
Video Info:
Format : MPEG-4
Format profile : Base Media / Version 2
Codec ID : mp42 (mp42/iso2/mp41)
File size : 2.83 GiB
Duration : 1 h 13 min
Overall bit rate : 5 548 kb/s
Movie name : Top Gear: Apocalypse
Album/Performer : Phil Churchward
Performer : Richard Hammond, James May
Genre : Documentary, Sport
Recorded date : 2010
Encoded date : UTC 2022-06-11 13:42:15
Tagged date : UTC 2022-06-11 13:42:15
Writing application : HandBrake 1.5.1 2022011000
LongDescription : Just what will motoring be like in a post apocalyptic world that's been blown to bits by nuclear bombs or a massive comet? It's a burning question that's on literally nobody's mind, and we give you all the answers in this brand new, incredibly cheerful Top Gear DVD. Embarking on a terrifying journey into the future, we show you how to drive to work in the perpetual darkness of a Nuclear Winter, how to make motor sport exciting when there's only two racing drivers left alive, and, in a world where all cars are bristling with weapons, how to survive the savage, explosive fury of a Doomsday M.O.T test. And amongst all the nuclear carnage, we also tackle the ultimate petrolhead's dilemma - what cars would you take for a final drive if there was only one barrel of petrol left on the planet? The explosions are huge, the cars are superb, so relax and enjoy. PS. This frightening vision of a post nuclear world is backed up by top scientists, in case you think it's us just cocking about.

Video
ID : 1
Format : HEVC
Format/Info : High Efficiency Video Coding
Format profile : [email protected]@Main
Codec ID : hvc1
Codec ID/Info : High Efficiency Video Coding
Duration : 1 h 13 min
Bit rate : 5 383 kb/s
Width : 1 920 pixels
Height : 1 080 pixels
Display aspect ratio : 16:9
Frame rate mode : Constant
Frame rate : 25.000 FPS
Standard : Component
Color space : YUV
Chroma subsampling : 4:2:0
Bit depth : 8 bits
Bits/(Pixel*Frame) : 0.104
Stream size : 2.75 GiB (97%)
Encoded date : UTC 2022-06-11 13:42:15
Tagged date : UTC 2022-06-11 13:42:15
Color range : Limited
Color primaries : BT.601 PAL
Transfer characteristics : BT.709
Matrix coefficients : BT.601
Menus : 4
Codec configuration box : hvcC

Audio
ID : 2
Format : AAC LC
Format/Info : Advanced Audio Codec Low Complexity
Codec ID : mp4a-40-2
Duration : 1 h 13 min
Source duration : 1 h 13 min
Bit rate mode : Constant
Bit rate : 160 kb/s
Channel(s) : 2 channels
Channel layout : L R
Sampling rate : 48.0 kHz
Frame rate : 46.875 FPS (1024 SPF)
Compression mode : Lossy
Stream size : 83.9 MiB (3%)
Source stream size : 83.9 MiB (3%)
Title : Stereo
Language : English
Default : Yes
Alternate group : 1
Encoded date : UTC 2022-06-11 13:42:15
Tagged date : UTC 2022-06-11 13:42:15
Menus : 4
mdhd_Duration : 4382976

Menu
ID : 4
Codec ID : text
Duration : 1 h 13 min
Language : English
Encoded date : UTC 2022-06-11 13:42:15
Tagged date : UTC 2022-06-11 13:42:15
Menu For : 1,2
00:00:00.000 : Chapter 1
00:02:44.760 : Chapter 2
00:11:22.880 : Chapter 3
00:22:39.160 : Chapter 4
00:25:24.440 : Chapter 5
00:29:28.280 : Chapter 6
00:40:32.960 : Chapter 7
00:44:46.600 : Chapter 8
00:50:54.600 : Chapter 9
01:00:01.760 : Chapter 10
01:02:38.680 : Chapter 11
01:12:29.800 : Chapter 12
Screenshots:









Files:

Top.Gear.Apocalypse.(2010).H265.1080p.DVDRip.EzzRips
  • Top.Gear.Apocalypse.(2010).H265.1080P.Dvdrip.Ezzrips.m4v (2.8 GB)

There are currently no comments. Feel free to leave one :)

Code:

  • udp://tracker.opentrackr.org:1337/announce
  • http://tracker.files.fm:6969/announce
  • udp://fe.dealclub.de:6969/announce
  • udp://movies.zsw.ca:6969/announce
  • udp://tracker.leech.ie:1337/announce
  • udp://public.publictracker.xyz:6969/announce
  • udp://tracker.publictracker.xyz:6969/announce
  • udp://tracker.0x.tf:6969/announce
  • udp://tracker.altrosky.nl:6969/announce
  • udp://opentracker.i2p.rocks:6969/announce
  • udp://vibe.sleepyinternetfun.xyz:1738/announce
  • udp://tracker.torrent.eu.org:451/announce