Obi-Wan.Kenobi.S01E06.1080p.WEB.h264-KOGi

  • Category TV
  • Type HD
  • Language English
  • Total size 2.3 GB
  • Uploaded By TheMorozko
  • Downloads 29921
  • Last checked 33 minutes ago
  • Date uploaded 5 days ago
  • Seeders 4396
  • Leechers 1115

Infohash : C091830EEBD4B4985548F61447F23BA140C17FDB


Screens... :





2022-06-22
title: Part VI
source: disneyplus.com
size: 2.3 GiB
runtime: 00:48:21.250
resolution: 1920 x 1080
bitrate: 6,836 kb/s
audio: E-AC-3 @ 768 kb/s (5.1) (Dolby Atmos) / English
subs: English (SDH), Czech, Danish, German, Greek, Spanish, Spanish (Latinoamericano),
Finnish, French (Canadien), French, Hungarian, Italian, Japanese, Korean, Dutch,
Norwegian, Polish, Portuguese, Portuguese (Brasil), Romanian, Slovak, Swedish,
Turkish, Chinese (Hong Kong), Chinese (Traditional), Chinese (Simplified)
url: https://www.tvmaze.com/shows/52260/obi-wan-kenobi

Infolink -> https://www.imdb.com/title/tt8466564/

Quote:

Mediainfo
Video
ID : 1
Format : AVC
Format/Info : Advanced Video Codec
Format profile : [email protected]
Format settings : CABAC / 4 Ref Frames
Format settings, CABAC : Yes
Format settings, Reference frames : 4 frames
Codec ID : V_MPEG4/ISO/AVC
Duration : 48 min 21 s
Bit rate mode : Variable
Bit rate : 6 065 kb/s
Maximum bit rate : 12.7 Mb/s
Width : 1 920 pixels
Height : 1 080 pixels
Display aspect ratio : 16:9
Frame rate mode : Constant
Frame rate : 24.000 FPS
Color space : YUV
Chroma subsampling : 4:2:0
Bit depth : 8 bits
Scan type : Progressive
Bits/(Pixel*Frame) : 0.122
Stream size : 2.05 GiB (89%)
Language : English
Default : Yes
Forced : No
Color range : Limited
Color primaries : BT.709
Transfer characteristics : BT.709
Matrix coefficients : BT.709

Audio
ID : 2
Format : E-AC-3 JOC
Format/Info : Enhanced AC-3 with Joint Object Coding
Commercial name : Dolby Digital Plus with Dolby Atmos
Codec ID : A_EAC3
Duration : 48 min 21 s
Bit rate mode : Constant
Bit rate : 768 kb/s
Channel(s) : 6 channels
Channel layout : L R C LFE Ls Rs
Sampling rate : 48.0 kHz
Frame rate : 31.250 FPS (1536 SPF)
Compression mode : Lossy
Stream size : 266 MiB (11%)
Language : English
Service kind : Complete Main
Default : Yes
Forced : No
Complexity index : 16
Number of dynamic objects : 15
Bed channel count : 1 channel
Bed channel configuration : LFE

Text #1
ID : 3
Format : UTF-8
Codec ID : S_TEXT/UTF8
Codec ID/Info : UTF-8 Plain Text
Duration : 44 min 20 s
Bit rate : 32 b/s
Count of elements : 455
Stream size : 10.4 KiB (0%)
Title : English (SDH)
Language : English
Default : No
Forced : No

Text #2
ID : 4
Format : UTF-8
Codec ID : S_TEXT/UTF8
Codec ID/Info : UTF-8 Plain Text
Duration : 48 min 10 s
Bit rate : 19 b/s
Count of elements : 310
Stream size : 6.97 KiB (0%)
Title : Čeština
Language : Czech
Default : No
Forced : No

Text #3
ID : 5
Format : UTF-8
Codec ID : S_TEXT/UTF8
Codec ID/Info : UTF-8 Plain Text
Duration : 48 min 10 s
Bit rate : 20 b/s
Count of elements : 224
Stream size : 7.22 KiB (0%)
Title : Dansk
Language : Danish
Default : No
Forced : No

Text #4
ID : 6
Format : UTF-8
Codec ID : S_TEXT/UTF8
Codec ID/Info : UTF-8 Plain Text
Duration : 48 min 10 s
Bit rate : 23 b/s
Count of elements : 313
Stream size : 8.35 KiB (0%)
Title : Deutsch
Language : German
Default : No
Forced : No

Text #5
ID : 7
Format : UTF-8
Codec ID : S_TEXT/UTF8
Codec ID/Info : UTF-8 Plain Text
Duration : 48 min 10 s
Bit rate : 37 b/s
Count of elements : 309
Stream size : 13.2 KiB (0%)
Title : Greek
Language : Greek
Default : No
Forced : No

Text #6
ID : 8
Format : UTF-8
Codec ID : S_TEXT/UTF8
Codec ID/Info : UTF-8 Plain Text
Duration : 48 min 10 s
Bit rate : 20 b/s
Count of elements : 303
Stream size : 7.40 KiB (0%)
Title : Español
Language : Spanish
Default : No
Forced : No

Text #7
ID : 9
Format : UTF-8
Codec ID : S_TEXT/UTF8
Codec ID/Info : UTF-8 Plain Text
Duration : 48 min 10 s
Bit rate : 20 b/s
Count of elements : 310
Stream size : 7.34 KiB (0%)
Title : Español (Latinoamericano)
Language : Spanish
Default : No
Forced : No

Text #8
ID : 10
Format : UTF-8
Codec ID : S_TEXT/UTF8
Codec ID/Info : UTF-8 Plain Text
Duration : 48 min 10 s
Bit rate : 21 b/s
Count of elements : 310
Stream size : 7.67 KiB (0%)
Title : Suomi
Language : Finnish
Default : No
Forced : No

Text #9
ID : 11
Format : UTF-8
Codec ID : S_TEXT/UTF8
Codec ID/Info : UTF-8 Plain Text
Duration : 43 min 51 s
Bit rate : 23 b/s
Count of elements : 302
Stream size : 7.44 KiB (0%)
Title : Français (Canadien)
Language : French
Default : No
Forced : No

Text #10
ID : 12
Format : UTF-8
Codec ID : S_TEXT/UTF8
Codec ID/Info : UTF-8 Plain Text
Duration : 48 min 10 s
Bit rate : 21 b/s
Count of elements : 303
Stream size : 7.45 KiB (0%)
Title : Français
Language : French
Default : No
Forced : No

Text #11
ID : 13
Format : UTF-8
Codec ID : S_TEXT/UTF8
Codec ID/Info : UTF-8 Plain Text
Duration : 48 min 10 s
Bit rate : 21 b/s
Count of elements : 308
Stream size : 7.54 KiB (0%)
Title : Magyar
Language : Hungarian
Default : No
Forced : No

Text #12
ID : 14
Format : UTF-8
Codec ID : S_TEXT/UTF8
Codec ID/Info : UTF-8 Plain Text
Duration : 48 min 10 s
Bit rate : 21 b/s
Count of elements : 310
Stream size : 7.68 KiB (0%)
Title : Italiano
Language : Italian
Default : No
Forced : No

Text #13
ID : 15
Format : UTF-8
Codec ID : S_TEXT/UTF8
Codec ID/Info : UTF-8 Plain Text
Duration : 48 min 10 s
Bit rate : 20 b/s
Count of elements : 303
Stream size : 7.40 KiB (0%)
Title : Japanese
Language : Japanese
Default : No
Forced : No

Text #14
ID : 16
Format : UTF-8
Codec ID : S_TEXT/UTF8
Codec ID/Info : UTF-8 Plain Text
Duration : 48 min 10 s
Bit rate : 25 b/s
Count of elements : 312
Stream size : 8.86 KiB (0%)
Title : Korean
Language : Korean
Default : No
Forced : No

Text #15
ID : 17
Format : UTF-8
Codec ID : S_TEXT/UTF8
Codec ID/Info : UTF-8 Plain Text
Duration : 48 min 10 s
Bit rate : 21 b/s
Count of elements : 271
Stream size : 7.62 KiB (0%)
Title : Nederlands
Language : Dutch
Default : No
Forced : No

Text #16
ID : 18
Format : UTF-8
Codec ID : S_TEXT/UTF8
Codec ID/Info : UTF-8 Plain Text
Duration : 48 min 10 s
Bit rate : 19 b/s
Count of elements : 310
Stream size : 6.93 KiB (0%)
Title : Norsk
Language : Norwegian
Default : No
Forced : No

Text #17
ID : 19
Format : UTF-8
Codec ID : S_TEXT/UTF8
Codec ID/Info : UTF-8 Plain Text
Duration : 48 min 10 s
Bit rate : 20 b/s
Count of elements : 306
Stream size : 7.37 KiB (0%)
Title : Polski
Language : Polish
Default : No
Forced : No

Text #18
ID : 20
Format : UTF-8
Codec ID : S_TEXT/UTF8
Codec ID/Info : UTF-8 Plain Text
Duration : 48 min 10 s
Bit rate : 19 b/s
Count of elements : 309
Stream size : 7.01 KiB (0%)
Title : Português
Language : Portuguese
Default : No
Forced : No

Text #19
ID : 21
Format : UTF-8
Codec ID : S_TEXT/UTF8
Codec ID/Info : UTF-8 Plain Text
Duration : 48 min 10 s
Bit rate : 22 b/s
Count of elements : 310
Stream size : 7.99 KiB (0%)
Title : Português (Brasil)
Language : Portuguese
Default : No
Forced : No

Text #20
ID : 22
Format : UTF-8
Codec ID : S_TEXT/UTF8
Codec ID/Info : UTF-8 Plain Text
Duration : 48 min 10 s
Bit rate : 21 b/s
Count of elements : 310
Stream size : 7.42 KiB (0%)
Title : Română
Language : Romanian
Default : No
Forced : No

Text #21
ID : 23
Format : UTF-8
Codec ID : S_TEXT/UTF8
Codec ID/Info : UTF-8 Plain Text
Duration : 48 min 10 s
Bit rate : 20 b/s
Count of elements : 310
Stream size : 7.24 KiB (0%)
Title : Slovenčina
Language : Slovak
Default : No
Forced : No

Text #22
ID : 24
Format : UTF-8
Codec ID : S_TEXT/UTF8
Codec ID/Info : UTF-8 Plain Text
Duration : 48 min 10 s
Bit rate : 22 b/s
Count of elements : 267
Stream size : 7.79 KiB (0%)
Title : Svenska
Language : Swedish
Default : No
Forced : No

Text #23
ID : 25
Format : UTF-8
Codec ID : S_TEXT/UTF8
Codec ID/Info : UTF-8 Plain Text
Duration : 48 min 10 s
Bit rate : 21 b/s
Count of elements : 311
Stream size : 7.76 KiB (0%)
Title : Türkçe
Language : Turkish
Default : No
Forced : No

Text #24
ID : 26
Format : UTF-8
Codec ID : S_TEXT/UTF8
Codec ID/Info : UTF-8 Plain Text
Duration : 48 min 10 s
Bit rate : 18 b/s
Count of elements : 312
Stream size : 6.70 KiB (0%)
Title : Chinese (Hong Kong)
Language : Chinese
Default : No
Forced : No

Text #25
ID : 27
Format : UTF-8
Codec ID : S_TEXT/UTF8
Codec ID/Info : UTF-8 Plain Text
Duration : 48 min 10 s
Bit rate : 16 b/s
Count of elements : 311
Stream size : 5.85 KiB (0%)
Title : Chinese (Traditional)
Language : Chinese
Default : No
Forced : No

Text #26
ID : 28
Format : UTF-8
Codec ID : S_TEXT/UTF8
Codec ID/Info : UTF-8 Plain Text
Duration : 48 min 10 s
Bit rate : 18 b/s
Count of elements : 312
Stream size : 6.43 KiB (0%)
Title : Chinese (Simplified)
Language : Chinese
Default : No
Forced : No

Files:

Obi-Wan.Kenobi.S01E06.1080p.WEB.h264-KOGi[rarbg]
  • Obi-Wan.Kenobi.S01E06.1080p.WEB.h264-KOGi.mkv (2.3 GB)
  • RARBG.txt (0.0 KB)
  • RARBG_DO_NOT_MIRROR.exe (0.1 KB)
  • obi-wan.kenobi.s01e06.1080p.web.h264-kogi.nfo (5.0 KB)

Comments

Code:

  • http://tracker.trackerfix.com:80/announce
  • udp://9.rarbg.me:2850/announce
  • udp://9.rarbg.to:2960/announce
  • udp://tracker.fatkhoala.org:13780/announce
  • udp://tracker.tallpenguin.org:15720/announce