Doctor Strange in the Multiverse of Madness (2022) IMAX 1080p 10b...

  • Category Movies
  • Type Dubs/Dual Audio
  • Language English
  • Total size 3.4 GB
  • Uploaded By Halaku
  • Downloads 1752
  • Last checked 49 minutes ago
  • Date uploaded 4 days ago
  • Seeders 50
  • Leechers 17

Doctor Strange in the Multiverse of...

FantasyActionAdventure

Doctor Strange, with the help of mystical allies both old and new, traverses the mind-bending and dangerous alternate realities of the Multiverse to confront a mysterious new adversary.

Infohash : 34BFE03C1701EAE632B681C116ECB28D73791C8B




Doctor Strange in the Multiverse of Madness (2022) IMAX 1080p 10bit [60FPS] DSNP WEBRip x265 HEVC [Org Hindi DDP 5.1 + English AAC 5.1] ESubs ~ MrStrange




Quote:

Complete name : F:\60FPS\Doctor Strange in the Multiverse of Madness (2022) IMAX 1080p 10bit [60FPS] DSNP WEBRip x265 HEVC [Org Hindi DDP 5.1 + English AAC 5.1] ESubs ~ MrStrange.mkv
Format : Matroska
Format version : Version 4
File size : 3.44 GiB
Duration : 2 h 6 min
Overall bit rate : 3 893 kb/s
Movie name : Doctor Strange in the Multiverse of Madness (2022) IMAX 1080p 10bit [60FPS] DSNP WEBRip x265 HEVC [Org Hindi DDP 5.1 + English AAC 5.1] ESubs ~ MrStrange
Encoded date : UTC 2022-06-23 04:32:37
Writing application : mkvmerge v47.0.0 ('Black Flag') 64-bit
Writing library : libebml v1.3.10 + libmatroska v1.5.2

Video
ID : 1
Format : HEVC
Format/Info : High Efficiency Video Coding
Format profile : Main [email protected]@Main
Codec ID : V_MPEGH/ISO/HEVC
Duration : 2 h 6 min
Bit rate : 3 378 kb/s
Width : 1 920 pixels
Height : 1 008 pixels
Display aspect ratio : 1.905
Frame rate mode : Constant
Frame rate : 59.940 (60000/1001) FPS
Color space : YUV
Chroma subsampling : 4:2:0
Bit depth : 10 bits
Bits/(Pixel*Frame) : 0.029
Stream size : 2.99 GiB (87%)
Title : Encoded by Mr. Strange
Writing library : x265 3.5+1-f0c1022b6:[Windows][clang 12.0.0][64 bit] 10bit
Encoding settings : cpuid=1111039 / frame-threads=4 / numa-pools=16 / wpp / no-pmode / no-pme / no-psnr / no-ssim / log-level=2 / input-csp=1 / input-res=1920x1008 / interlace=0 / total-frames=0 / level-idc=0 / high-tier=1 / uhd-bd=0 / ref=4 / no-allow-non-conformance / no-repeat-headers / annexb / no-aud / no-hrd / info / hash=0 / no-temporal-layers / open-gop / min-keyint=60 / keyint=600 / gop-lookahead=0 / bframes=4 / b-adapt=2 / b-pyramid / bframe-bias=0 / rc-lookahead=25 / lookahead-slices=4 / scenecut=40 / hist-scenecut=0 / radl=0 / no-splice / no-intra-refresh / ctu=64 / min-cu-size=8 / rect / no-amp / max-tu-size=32 / tu-inter-depth=1 / tu-intra-depth=1 / limit-tu=0 / rdoq-level=2 / dynamic-rd=0.00 / no-ssim-rd / signhide / no-tskip / nr-intra=0 / nr-inter=0 / no-constrained-intra / strong-intra-smoothing / max-merge=3 / limit-refs=3 / limit-modes / me=3 / subme=3 / merange=57 / temporal-mvp / no-frame-dup / no-hme / weightp / no-weightb / no-analyze-src-pics / deblock=0:0 / sao / no-sao-non-deblock / rd=4 / selective-sao=4 / no-early-skip / rskip / no-fast-intra / no-tskip-fast / no-cu-lossless / no-b-intra / no-splitrd-skip / rdpenalty=0 / psy-rd=2.00 / psy-rdoq=1.00 / no-rd-refine / no-lossless / cbqpoffs=0 / crqpoffs=0 / rc=abr / bitrate=3400 / qcomp=0.60 / qpstep=4 / stats-write=0 / stats-read=0 / ipratio=1.40 / pbratio=1.30 / aq-mode=2 / aq-strength=1.00 / cutree / zone-count=0 / no-strict-cbr / qg-size=32 / no-rc-grain / qpmax=69 / qpmin=0 / no-const-vbv / sar=1 / overscan=0 / videoformat=5 / range=0 / colorprim=1 / transfer=1 / colormatrix=1 / chromaloc=0 / display-window=0 / cll=0,0 / min-luma=0 / max-luma=1023 / log2-max-poc-lsb=8 / vui-timing-info / vui-hrd-info / slices=1 / no-opt-qp-pps / no-opt-ref-list-length-pps / no-multi-pass-opt-rps / scenecut-bias=0.05 / hist-threshold=0.03 / no-opt-cu-delta-qp / no-aq-motion / no-hdr10 / no-hdr10-opt / no-dhdr10-opt / no-idr-recovery-sei / analysis-reuse-level=0 / analysis-save-reuse-level=0 / analysis-load-reuse-level=0 / scale-factor=0 / refine-intra=0 / refine-inter=0 / refine-mv=1 / refine-ctu-distortion=0 / no-limit-sao / ctu-info=0 / no-lowpass-dct / refine-analysis-type=0 / copy-pic=1 / max-ausize-factor=1.0 / no-dynamic-refine / no-single-sei / no-hevc-aq / no-svt / no-field / qp-adaptation-range=1.00 / scenecut-aware-qp=0conformance-window-offsets / right=0 / bottom=0 / decoder-max-rate=0 / no-vbv-live-multi-pass
Default : Yes
Forced : No
Color range : Limited
Color primaries : BT.709
Transfer characteristics : BT.709
Matrix coefficients : BT.709

Audio #1
ID : 2
Format : E-AC-3
Format/Info : Enhanced AC-3
Commercial name : Dolby Digital Plus
Codec ID : A_EAC3
Duration : 2 h 6 min
Bit rate mode : Constant
Bit rate : 192 kb/s
Channel(s) : 6 channels
Channel layout : L R C LFE Ls Rs
Sampling rate : 48.0 kHz
Frame rate : 31.250 FPS (1536 SPF)
Compression mode : Lossy
Delay relative to video : -21 ms
Stream size : 174 MiB (5%)
Title : Org DSNP हिन्दी DD+ 5.1Ch 192Kbps ~ Strange
Language : Hindi
Service kind : Complete Main
Default : Yes
Forced : No

Audio #2
ID : 3
Format : AAC LC SBR
Format/Info : Advanced Audio Codec Low Complexity with Spectral Band Replication
Commercial name : HE-AAC
Format settings : Explicit
Codec ID : A_AAC-2
Duration : 2 h 6 min
Bit rate : 319 kb/s
Channel(s) : 6 channels
Channel layout : C L R Ls Rs LFE
Sampling rate : 48.0 kHz
Frame rate : 23.438 FPS (2048 SPF)
Compression mode : Lossy
Delay relative to video : -21 ms
Stream size : 288 MiB (8%)
Title : English AAC 5.1
Language : English
Default : No
Forced : No

Text #1
ID : 4
Format : UTF-8
Codec ID : S_TEXT/UTF8
Codec ID/Info : UTF-8 Plain Text
Duration : 2 h 5 min
Bit rate : 37 b/s
Count of elements : 1322
Stream size : 34.2 KiB (0%)
Title : English SRT Subtitles
Language : English
Default : No
Forced : No

Text #2
ID : 5
Format : UTF-8
Codec ID : S_TEXT/UTF8
Codec ID/Info : UTF-8 Plain Text
Duration : 25 min 8 s
Bit rate : 1 b/s
Count of elements : 10
Stream size : 265 Bytes (0%)
Title : English SRT Subtitles {Forced}
Language : English
Default : Yes
Forced : Yes

Text #3
ID : 6
Format : UTF-8
Codec ID : S_TEXT/UTF8
Codec ID/Info : UTF-8 Plain Text
Duration : 2 h 5 min
Bit rate : 50 b/s
Count of elements : 1906
Stream size : 46.1 KiB (0%)
Title : English SRT Subtitles [SDH]
Language : English
Default : No
Forced : No



S C R E E N S H O T S




Quote:

📀 Encoding Source — Doctor.Strange.in.the.Multiverse.of.Madness.2022.IMAX.1080p.DSNP.WEB-DL.DDP5.1.Atmos.H.264-CMRG [7.29 GB]
🔊 Audio Source :~ Org Untouched DSNP हिन्दी DD+ 5.1Ch 192Kbps Hindi Audio By ~ TombDoc


I Post here various contents which I can't post on torrent & Links of my Old & Dead Torrents


Files:

  • Doctor Strange in the Multiverse of Madness (2022) IMAX 1080p 10bit [60FPS] DSNP WEBRip x265 HEVC [Org Hindi DDP 5.1 + English AAC 5.1] ESubs ~ MrStrange.mkv (3.4 GB)

Comments

Code:

  • http://gwp2-v19.rinet.ru:80/announce
  • http://h4.trakx.nibba.trade:80/announce
  • http://open.acgtracker.com:1096/announce
  • http://open.trackerlist.xyz:80/announce
  • http://retracker.sevstar.net:2710/announce
  • http://t.acg.rip:6699/announce
  • http://t.nyaatracker.com:80/announce
  • http://tracker.bt4g.com:2095/announce
  • http://tracker.dler.org:6969/announce
  • http://tracker.files.fm:6969/announce
  • http://tracker.gbitt.info:80/announce
  • http://tracker.torrentyorg.pl:80/announce
  • http://tracker.ygsub.com:6969/announce
  • http://tracker.yoshi210.com:6969/announce
  • http://tracker2.dler.org:80/announce
  • http://tracker2.itzmx.com:6961/announce
  • http://tracker3.itzmx.com:6961/announce
  • https://bigfoot1942.sektori.org:443/announce
  • https://opentracker.co:443/announce
  • https://opentracker.xyz:443/announce
  • https://t.quic.ws:443/announce
  • https://tracker.fastdownload.xyz:443/announce
  • https://tracker.nanoha.org:443/announce
  • https://tracker.publictorrent.net:443/announce
  • https://tracker.vectahosting.eu:2053/announce
  • udp://9.rarbg.com:2710/announce
  • udp://amigacity.xyz:6969/announce
  • udp://bt.dy20188.com:80/announce
  • udp://bt.xxx-tracker.com:2710/announce
  • udp://bt1.archive.org:6969/announce
  • udp://bt2.archive.org:6969/announce
  • udp://denis.stalker.upeer.me:6969/announce
  • udp://eddie4.nl:6969/announce
  • udp://exodus.desync.com:6969/announce
  • udp://explodie.org:6969/announce
  • udp://ipv4.tracker.harry.lu:80/announce
  • udp://newtoncity.org:6969/announce
  • udp://open.demonii.si:1337/announce
  • udp://open.stealth.si:80/announce
  • udp://opentor.org:2710/announce
  • udp://opentracker.sktorrent.org:6969/announce
  • udp://retracker.akado-ural.ru:80/announce
  • udp://retracker.baikal-telecom.net:2710/announce
  • udp://retracker.lanta-net.ru:2710/announce
  • udp://retracker.netbynet.ru:2710/announce
  • udp://torrentclub.tech:6969/announce
  • udp://tracker.coppersurfer.tk:6969/announce
  • udp://tracker.cyberia.is:6969/announce
  • udp://tracker.ds.is:6969/announce
  • udp://tracker.filemail.com:6969/announce
  • udp://tracker.filepit.to:6969/announce
  • udp://tracker.gbitt.info:80/announce
  • udp://tracker.iamhansen.xyz:2000/announce
  • udp://tracker.internetwarriors.net:1337/announce
  • udp://tracker.leechers-paradise.org:6969/announce
  • udp://tracker.moeking.me:6969/announce
  • udp://tracker.msm8916.com:6969/announce
  • udp://tracker.nibba.trade:1337/announce
  • udp://tracker.nyaa.uk:6969/announce
  • udp://tracker.openbittorrent.com:1337/announce
  • udp://tracker.openbittorrent.com:80/announce
  • udp://tracker.opentrackr.org:1337/announce
  • udp://tracker.pirateparty.gr:6969/announce
  • udp://tracker.pomf.se:1337/announce
  • udp://tracker.pomf.se:80/announce
  • udp://tracker.supertracker.net:1337/announce
  • udp://tracker.tiny-vps.com:6969/announce
  • udp://tracker.torrent.eu.org:451/announce
  • udp://tracker.uw0.xyz:6969/announce
  • udp://tracker.zer0day.to:1337/announce
  • udp://tracker01.loveapp.com:6789/announce
  • udp://tracker-udp.gbitt.info:80/announce
  • udp://z.mercax.com:53/announce
  • udp://zephir.monocul.us:6969/announce