Nenjuku.Needhi.2022 Multi[Ta-Tel-Mal-Kan]1080p.SONYLIV.WEB-DL.AAC...

  • Category Movies
  • Type HD
  • Language English
  • Total size 3.1 GB
  • Uploaded By hdmovie2
  • Downloads 181
  • Last checked 1 hour ago
  • Date uploaded 2 days ago
  • Seeders 33
  • Leechers 12

Nenjuku Needhi

CrimeDramaMystery

An upright city-bred IPS officer investigates a mysterious case of three missing Dalit girls in a rural part of Tamil Nadu. While two are found dead, one is missing without any trace. Can he crack the case and get hold of the culprits?

Infohash : 515DB882DCCFD784146627B5A5F6654DE2C070D5




General
Complete name : Nenjuku.Needhi.2022 Multi[Ta-Tel-Mal-Kan]1080p.SONYLIV.WEB-DL.AAC2.0.H.264.mkv - 3.09 GB.mkv
Format : Matroska
Format version : Version 4
File size : 3.09 GiB
Duration : 2 h 14 min
Overall bit rate mode : Variable
Overall bit rate : 3 274 kb/s
Encoded date : UTC 2022-06-22 14:46:47
Writing application : mkvmerge v59.0.0 ('Shining Star') 64-bit
Writing library : libebml v1.4.2 + libmatroska v1.6.4

Video
ID : 1
Format : AVC
Format/Info : Advanced Video Codec
Format profile : [email protected]
Format settings : CABAC / 4 Ref Frames
Format settings, CABAC : Yes
Format settings, Reference frames : 4 frames
Codec ID : V_MPEG4/ISO/AVC
Duration : 2 h 14 min
Bit rate mode : Variable
Bit rate : 2 885 kb/s
Maximum bit rate : 5 500 kb/s
Width : 1 920 pixels
Height : 1 080 pixels
Display aspect ratio : 16:9
Frame rate mode : Constant
Frame rate : 24.000 FPS
Color space : YUV
Chroma subsampling : 4:2:0
Bit depth : 8 bits
Scan type : Progressive
Bits/(Pixel*Frame) : 0.058
Stream size : 2.72 GiB (88%)
Default : Yes
Forced : No
Color range : Limited
Color primaries : BT.709
Transfer characteristics : BT.709
Matrix coefficients : BT.709

Audio #1
ID : 2
Format : AAC LC SBR
Format/Info : Advanced Audio Codec Low Complexity with Spectral Band Replication
Commercial name : HE-AAC
Format settings : Explicit
Codec ID : 2 / A_AAC-2
Duration : 2 h 14 min
Bit rate : 96.0 kb/s
Channel(s) : 2 channels
Channel layout : L R
Sampling rate : 96.0 kHz
Frame rate : 46.875 FPS (2048 SPF)
Compression mode : Lossy
Stream size : 92.7 MiB (3%)
Language : Kannada
Default : Yes
Forced : No

Audio #2
ID : 3
Format : AAC LC SBR
Format/Info : Advanced Audio Codec Low Complexity with Spectral Band Replication
Commercial name : HE-AAC
Format settings : Explicit
Codec ID : 2 / A_AAC-2
Duration : 2 h 14 min
Bit rate : 96.0 kb/s
Channel(s) : 2 channels
Channel layout : L R
Sampling rate : 96.0 kHz
Frame rate : 46.875 FPS (2048 SPF)
Compression mode : Lossy
Stream size : 92.7 MiB (3%)
Language : Malayalam
Default : No
Forced : No

Audio #3
ID : 4
Format : AAC LC SBR
Format/Info : Advanced Audio Codec Low Complexity with Spectral Band Replication
Commercial name : HE-AAC
Format settings : Explicit
Codec ID : 2 / A_AAC-2
Duration : 2 h 14 min
Bit rate : 96.0 kb/s
Channel(s) : 2 channels
Channel layout : L R
Sampling rate : 96.0 kHz
Frame rate : 46.875 FPS (2048 SPF)
Compression mode : Lossy
Stream size : 92.7 MiB (3%)
Language : Telugu
Default : No
Forced : No

Audio #4
ID : 5
Format : AAC LC SBR
Format/Info : Advanced Audio Codec Low Complexity with Spectral Band Replication
Commercial name : HE-AAC
Format settings : Explicit
Codec ID : 2 / A_AAC-2
Duration : 2 h 14 min
Bit rate : 96.0 kb/s
Channel(s) : 2 channels
Channel layout : L R
Sampling rate : 96.0 kHz
Frame rate : 46.875 FPS (2048 SPF)
Compression mode : Lossy
Stream size : 92.7 MiB (3%)
Language : Tamil
Default : No
Forced : No

Text
ID : 6
Format : UTF-8
Codec ID : S_TEXT/UTF8
Codec ID/Info : UTF-8 Plain Text
Duration : 2 h 12 min
Bit rate : 65 b/s
Count of elements : 1853
Stream size : 63.4 KiB (0%)
Language : English
Default : No
Forced : No










Files:

  • Nenjuku.Needhi.2022 Multi[Ta-Tel-Mal-Kan]1080p.SONYLIV.WEB-DL.AAC2.0.H.264.mkv - 3.09 GB.mkv (3.1 GB)

There are currently no comments. Feel free to leave one :)

Code:

  • udp://tracker.tiny-vps.com:6969/announce
  • udp://tracker.torrent.eu.org:451/announce
  • udp://exodus.desync.com:6969/announce
  • udp://explodie.org:6969/announce
  • udp://tracker.opentrackr.org:1337/announce
  • http://t.nyaatracker.com:80/announce
  • udp://open.stealth.si:80/announce
  • http://tracker.dler.org:6969/announce
  • udp://ipv4.tracker.harry.lu:80/announce
  • http://vps02.net.orel.ru:80/announce
  • udp://vibe.sleepyinternetfun.xyz:1738/announce
  • udp://tracker.bitsearch.to:1337/announce
  • udp://inferno.demonoid.is:3391/announce
  • udp://www.torrent.eu.org:451/announce
  • udp://open.tracker.cl:1337/announce