Jeopardy.2022.06.22.720p.HDTV.x264.AC3

  • Category TV
  • Type HD
  • Language English
  • Total size 377.3 MB
  • Uploaded By atgoat
  • Downloads 130
  • Last checked 1 hour ago
  • Date uploaded 3 days ago
  • Seeders 76
  • Leechers 5

Infohash : D67E97B27029B12DDEBE5927D9E1B5BEB009B217


Code:

General
Unique ID : 60631784335351417777578805045020442796 (0x2D9D41C46A4B0DBFB762FF0336C9C0AC)
Complete name : Jeopardy.2022.06.22.720p.HDTV.x264.AC3.mkv
Format : Matroska
Format version : Version 4
File size : 377 MiB
Duration : 19 min 51 s
Overall bit rate : 2 655 kb/s
Encoded date : UTC 2022-06-23 06:08:08
Writing application : mkvmerge v68.0.0 ('The Curtain') 64-bit
Writing library : libebml v1.4.2 + libmatroska v1.6.4

Video
ID : 1
Format : AVC
Format/Info : Advanced Video Codec
Format profile : [email protected]
Format settings : CABAC / 9 Ref Frames
Format settings, CABAC : Yes
Format settings, Reference frames : 9 frames
Codec ID : V_MPEG4/ISO/AVC
Duration : 19 min 51 s
Bit rate : 2 267 kb/s
Width : 1 280 pixels
Height : 720 pixels
Display aspect ratio : 16:9
Frame rate mode : Constant
Frame rate : 59.940 (60000/1001) FPS
Color space : YUV
Chroma subsampling : 4:2:0
Bit depth : 8 bits
Scan type : Progressive
Bits/(Pixel*Frame) : 0.041
Stream size : 322 MiB (85%)
Writing library : x264 core 164 r3095 baee400
Encoding settings : cabac=1 / ref=9 / deblock=1:-2:-2 / analyse=0x3:0x133 / me=umh / subme=10 / psy=1 / psy_rd=1.00:0.00 / mixed_ref=1 / me_range=24 / chroma_me=1 / trellis=2 / 8x8dct=1 / cqm=0 / deadzone=21,11 / fast_pskip=1 / chroma_qp_offset=-2 / threads=22 / lookahead_threads=3 / sliced_threads=0 / nr=0 / decimate=1 / interlaced=0 / bluray_compat=0 / constrained_intra=0 / bframes=8 / b_pyramid=2 / b_adapt=2 / b_bias=0 / direct=3 / weightb=1 / open_gop=0 / weightp=2 / keyint=250 / keyint_min=25 / scenecut=40 / intra_refresh=0 / rc_lookahead=60 / rc=crf / mbtree=1 / crf=21.0 / qcomp=0.60 / qpmin=0 / qpmax=69 / qpstep=4 / ip_ratio=1.40 / aq=1:1.00
Default : Yes
Forced : No

Audio
ID : 2
Format : AC-3
Format/Info : Audio Coding 3
Commercial name : Dolby Digital
Codec ID : A_AC3
Duration : 19 min 51 s
Bit rate mode : Constant
Bit rate : 384 kb/s
Channel(s) : 6 channels
Channel layout : L R C LFE Ls Rs
Sampling rate : 48.0 kHz
Frame rate : 31.250 FPS (1536 SPF)
Compression mode : Lossy
Delay relative to video : 18 ms
Stream size : 54.6 MiB (14%)
Language : English
Service kind : Complete Main
Default : Yes
Forced : No

Text
ID : 3
Format : UTF-8
Codec ID : S_TEXT/UTF8
Codec ID/Info : UTF-8 Plain Text
Duration : 19 min 33 s
Bit rate : 70 b/s
Count of elements : 330
Stream size : 10.1 KiB (0%)
Language : English
Default : Yes
Forced : No

Files:

  • Jeopardy.2022.06.22.720p.HDTV.x264.AC3.mkv (377.3 MB)

There are currently no comments. Feel free to leave one :)

Code:

  • udp://tracker.opentrackr.org:1337/announce
  • udp://exodus.desync.com:6969
  • udp://tracker.torrent.eu.org:451
  • udp://open.stealth.si:80/announce
  • udp://tracker.openbittorrent.com:6969
  • udp://opentracker.i2p.rocks:6969/announce