Sita Ramam (2022) UNCUT 720p 10bit DS4K AMZN WEBRip x265 HEVC [CA...

  • Category Movies
  • Type Dubs/Dual Audio
  • Language Hindi
  • Total size 1.5 GB
  • Uploaded By emstone
  • Downloads 10515
  • Last checked 2 months ago
  • Date uploaded 2 months ago
  • Seeders 45
  • Leechers 7

Sita Ramam

RomanceDrama

A long-lost letter must find its way to the recipient twenty years later. A rabble-rouser learns a lesson in humility and love along the way.

Infohash : 515CDA369107B2F788C2477A2226FE5D32AD9DDB




Sita Ramam (2022) UNCUT 720p 10bit DS4K AMZN WEBRip x265 HEVC [CAM Hindi DD 2.0 ~192Kbps + Malayalam DD 2.0] ESub ~ Immortal



Code:

Video
ID : 1
Format : HEVC
Format/Info : High Efficiency Video Coding
Format profile : Main [email protected]@Main
Codec ID : V_MPEGH/ISO/HEVC
Duration : 2 h 38 min
Bit rate : 1 096 kb/s
Width : 1 280 pixels
Height : 536 pixels
Display aspect ratio : 2.40:1
Frame rate mode : Constant
Frame rate : 24.000 FPS
Color space : YUV
Chroma subsampling : 4:2:0
Bit depth : 10 bits
Bits/(Pixel*Frame) : 0.067
Stream size : 1.21 GiB (79%)
Title : Encoded By ~ Immortal
Language : Malay
Default : Yes
Forced : Yes
Color range : Limited
Color primaries : BT.709
Transfer characteristics : BT.709
Matrix coefficients : BT.709

Audio #1
ID : 2
Format : AC-3
Format/Info : Audio Coding 3
Commercial name : Dolby Digital
Codec ID : A_AC3
Duration : 2 h 38 min
Bit rate mode : Constant
Bit rate : 192 kb/s
Channel(s) : 2 channels
Channel layout : L R
Sampling rate : 48.0 kHz
Frame rate : 31.250 FPS (1536 SPF)
Compression mode : Lossy
Delay relative to video : -5 ms
Stream size : 217 MiB (14%)
Title : CAM Clean Hindi DD 2.0 192Kbps ~ Immortal
Language : Hindi
Service kind : Complete Main
Default : Yes
Forced : Yes

Audio #2
ID : 3
Format : AC-3
Format/Info : Audio Coding 3
Commercial name : Dolby Digital
Codec ID : A_AC3
Duration : 2 h 38 min
Bit rate mode : Constant
Bit rate : 96.0 kb/s
Channel(s) : 2 channels
Channel layout : L R
Sampling rate : 48.0 kHz
Frame rate : 31.250 FPS (1536 SPF)
Compression mode : Lossy
Delay relative to video : -5 ms
Stream size : 109 MiB (7%)
Title : Malayalam DD 2.0 ~ Immortal
Language : Malayalam
Service kind : Complete Main
Default : No
Forced : No

Text
ID : 4
Format : UTF-8
Codec ID : S_TEXT/UTF8
Codec ID/Info : UTF-8 Plain Text
Duration : 2 h 34 min
Bit rate : 69 b/s
Frame rate : 0.289 FPS
Count of elements : 2683
Stream size : 78.4 KiB (0%)
Title : English
Language : English
Default : No
Forced : No




















Quote:

🎞 Encoding Source :— Sita.Ramam.2022.2160p.AMZN.WEB-DL.DDP5.1.HEVC-Telly.mkv" (16.5GB) 💝
🔉 Audio Credit :— Sita Ramam 2022 Hindi Cam Audio By CineVood & Sync With AMZN WEB-DL By Arya.ac3 💚

Files:

  • Sita Ramam (2022) UNCUT 720p 10bit DS4K AMZN WEBRip x265 HEVC [CAM Hindi DD 2.0 ~192Kbps + Malayalam DD 2.0] ESub ~ Immortal.mkv (1.5 GB)

Comments

Code:

  • udp://tracker.leechers-paradise.org:6969/announce
  • udp://tracker.coppersurfer.tk:6969/announce
  • udp://tracker.opentrackr.org:1337/announce
  • udp://p4p.arenabg.com:1337/announce
  • https://tracker.nanoha.org:443/announce
  • https://tracker.lilithraws.cf:443/announce
  • https://tracker.iriseden.fr:443/announce
  • https://t1.tokhmi.xyz:443/announce
  • http://vps02.net.orel.ru:80/announce
  • http://googer.cc:1337/announce
  • https://tracker.nitrix.me:443/announce
  • https://mytracker.fly.dev:443/announce
  • http://tracker.bt4g.com:2095/announce
  • http://fxtt.ru:80/announce