The.Lord.of.the.Rings.The.Rings.of.Power.S01E06.1080p.AMZN.WEBRip...

  • Category TV
  • Type HD
  • Language English
  • Total size 3.9 GB
  • Uploaded By prudence25
  • Downloads 27907
  • Last checked 1 month ago
  • Date uploaded 1 month ago
  • Seeders 3307
  • Leechers 947

Infohash : E501AD214118CEABB6ADCD7917A271B273C8E668






Code:

Video
ID : 1
Format : AVC
Format/Info : Advanced Video Codec
Format profile : [email protected]
Format settings : CABAC / 4 Ref Frames
Format settings, CABAC : Yes
Format settings, Reference frames : 4 frames
Codec ID : V_MPEG4/ISO/AVC
Duration : 1 h 9 min
Bit rate mode : Constant
Bit rate : 7 307 kb/s
Nominal bit rate : 10 000 kb/s
Width : 1 920 pixels
Height : 800 pixels
Display aspect ratio : 2.40:1
Frame rate mode : Constant
Frame rate : 24.000 FPS
Color space : YUV
Chroma subsampling : 4:2:0
Bit depth : 8 bits
Scan type : Progressive
Bits/(Pixel*Frame) : 0.198
Stream size : 3.55 GiB (92%)
Language : English
Default : Yes
Forced : No
Color range : Limited
Color primaries : BT.709
Transfer characteristics : BT.709
Matrix coefficients : BT.709

Audio
ID : 2
Format : E-AC-3
Format/Info : Enhanced AC-3
Commercial name : Dolby Digital Plus
Codec ID : A_EAC3
Duration : 1 h 9 min
Bit rate mode : Constant
Bit rate : 640 kb/s
Channel(s) : 6 channels
Channel layout : L R C LFE Ls Rs
Sampling rate : 48.0 kHz
Frame rate : 31.250 FPS (1536 SPF)
Compression mode : Lossy
Stream size : 318 MiB (8%)
Language : English
Service kind : Complete Main
Default : Yes
Forced : No

Text #1
ID : 3
Format : UTF-8
Codec ID : S_TEXT/UTF8
Codec ID/Info : UTF-8 Plain Text
Duration : 38 min 25 s
Bit rate : 0 b/s
Frame rate : 0.006 FPS
Count of elements : 14
Stream size : 230 Bytes (0%)
Title : Forced
Language : English
Default : Yes
Forced : Yes

Text #2
ID : 4
Format : UTF-8
Codec ID : S_TEXT/UTF8
Codec ID/Info : UTF-8 Plain Text
Duration : 1 h 4 min
Bit rate : 22 b/s
Frame rate : 0.113 FPS
Count of elements : 435
Stream size : 10.8 KiB (0%)
Language : English
Default : No
Forced : No

Text #3
ID : 5
Format : UTF-8
Codec ID : S_TEXT/UTF8
Codec ID/Info : UTF-8 Plain Text
Duration : 1 h 4 min
Bit rate : 37 b/s
Frame rate : 0.204 FPS
Count of elements : 787
Stream size : 17.7 KiB (0%)
Title : SDH
Language : English
Default : No
Forced : No

Text #4
ID : 6
Format : UTF-8
Codec ID : S_TEXT/UTF8
Codec ID/Info : UTF-8 Plain Text
Duration : 1 h 6 min
Bit rate : 35 b/s
Frame rate : 0.105 FPS
Count of elements : 417
Stream size : 17.2 KiB (0%)
Language : Arabic
Default : No
Forced : No

Text #5
ID : 7
Format : UTF-8
Codec ID : S_TEXT/UTF8
Codec ID/Info : UTF-8 Plain Text
Duration : 1 h 6 min
Bit rate : 22 b/s
Frame rate : 0.105 FPS
Count of elements : 417
Stream size : 10.8 KiB (0%)
Title : European
Language : Catalan
Default : No
Forced : No

Text #6
ID : 8
Format : UTF-8
Codec ID : S_TEXT/UTF8
Codec ID/Info : UTF-8 Plain Text
Duration : 1 h 6 min
Bit rate : 20 b/s
Frame rate : 0.105 FPS
Count of elements : 417
Stream size : 9.94 KiB (0%)
Language : Czech
Default : No
Forced : No

Text #7
ID : 9
Format : UTF-8
Codec ID : S_TEXT/UTF8
Codec ID/Info : UTF-8 Plain Text
Duration : 1 h 6 min
Bit rate : 20 b/s
Frame rate : 0.105 FPS
Count of elements : 417
Stream size : 9.99 KiB (0%)
Language : Danish
Default : No
Forced : No

Text #8
ID : 10
Format : UTF-8
Codec ID : S_TEXT/UTF8
Codec ID/Info : UTF-8 Plain Text
Duration : 1 h 6 min
Bit rate : 24 b/s
Frame rate : 0.105 FPS
Count of elements : 417
Stream size : 12.0 KiB (0%)
Language : German
Default : No
Forced : No

Text #9
ID : 11
Format : UTF-8
Codec ID : S_TEXT/UTF8
Codec ID/Info : UTF-8 Plain Text
Duration : 1 h 6 min
Bit rate : 41 b/s
Frame rate : 0.104 FPS
Count of elements : 415
Stream size : 20.3 KiB (0%)
Language : Greek
Default : No
Forced : No

Text #10
ID : 12
Format : UTF-8
Codec ID : S_TEXT/UTF8
Codec ID/Info : UTF-8 Plain Text
Duration : 1 h 6 min
Bit rate : 22 b/s
Frame rate : 0.105 FPS
Count of elements : 417
Stream size : 10.9 KiB (0%)
Title : Latin American
Language : Spanish
Default : No
Forced : No

Text #11
ID : 13
Format : UTF-8
Codec ID : S_TEXT/UTF8
Codec ID/Info : UTF-8 Plain Text
Duration : 1 h 6 min
Bit rate : 22 b/s
Frame rate : 0.105 FPS
Count of elements : 417
Stream size : 11.0 KiB (0%)
Language : Spanish
Default : No
Forced : No

Text #12
ID : 14
Format : UTF-8
Codec ID : S_TEXT/UTF8
Codec ID/Info : UTF-8 Plain Text
Duration : 1 h 6 min
Bit rate : 21 b/s
Frame rate : 0.105 FPS
Count of elements : 417
Stream size : 10.5 KiB (0%)
Title : European
Language : Basque
Default : No
Forced : No

Text #13
ID : 15
Format : UTF-8
Codec ID : S_TEXT/UTF8
Codec ID/Info : UTF-8 Plain Text
Duration : 1 h 6 min
Bit rate : 21 b/s
Frame rate : 0.105 FPS
Count of elements : 417
Stream size : 10.7 KiB (0%)
Language : Finnish
Default : No
Forced : No

Text #14
ID : 16
Format : UTF-8
Codec ID : S_TEXT/UTF8
Codec ID/Info : UTF-8 Plain Text
Duration : 1 h 6 min
Bit rate : 24 b/s
Frame rate : 0.104 FPS
Count of elements : 416
Stream size : 11.9 KiB (0%)
Language : fil
Default : No
Forced : No

Text #15
ID : 17
Format : UTF-8
Codec ID : S_TEXT/UTF8
Codec ID/Info : UTF-8 Plain Text
Duration : 1 h 6 min
Bit rate : 23 b/s
Frame rate : 0.105 FPS
Count of elements : 417
Stream size : 11.5 KiB (0%)
Title : Canadian
Language : French
Default : No
Forced : No

Text #16
ID : 18
Format : UTF-8
Codec ID : S_TEXT/UTF8
Codec ID/Info : UTF-8 Plain Text
Duration : 1 h 6 min
Bit rate : 23 b/s
Frame rate : 0.117 FPS
Count of elements : 464
Stream size : 11.2 KiB (0%)
Language : French
Default : No
Forced : No

Text #17
ID : 19
Format : UTF-8
Codec ID : S_TEXT/UTF8
Codec ID/Info : UTF-8 Plain Text
Duration : 1 h 6 min
Bit rate : 19 b/s
Frame rate : 0.105 FPS
Count of elements : 417
Stream size : 9.58 KiB (0%)
Title : European
Language : Galician
Default : No
Forced : No

Text #18
ID : 20
Format : UTF-8
Codec ID : S_TEXT/UTF8
Codec ID/Info : UTF-8 Plain Text
Duration : 1 h 6 min
Bit rate : 34 b/s
Frame rate : 0.105 FPS
Count of elements : 417
Stream size : 16.6 KiB (0%)
Language : Hebrew
Default : No
Forced : No

Text #19
ID : 21
Format : UTF-8
Codec ID : S_TEXT/UTF8
Codec ID/Info : UTF-8 Plain Text
Duration : 1 h 6 min
Bit rate : 58 b/s
Frame rate : 0.105 FPS
Count of elements : 417
Stream size : 28.4 KiB (0%)
Language : Hindi
Default : No
Forced : No

Text #20
ID : 22
Format : UTF-8
Codec ID : S_TEXT/UTF8
Codec ID/Info : UTF-8 Plain Text
Duration : 1 h 6 min
Bit rate : 22 b/s
Frame rate : 0.103 FPS
Count of elements : 410
Stream size : 10.7 KiB (0%)
Language : Hungarian
Default : No
Forced : No

Text #21
ID : 23
Format : UTF-8
Codec ID : S_TEXT/UTF8
Codec ID/Info : UTF-8 Plain Text
Duration : 1 h 6 min
Bit rate : 22 b/s
Frame rate : 0.105 FPS
Count of elements : 417
Stream size : 11.0 KiB (0%)
Language : Indonesian
Default : No
Forced : No

Text #22
ID : 24
Format : UTF-8
Codec ID : S_TEXT/UTF8
Codec ID/Info : UTF-8 Plain Text
Duration : 1 h 6 min
Bit rate : 21 b/s
Frame rate : 0.104 FPS
Count of elements : 416
Stream size : 10.6 KiB (0%)
Language : Italian
Default : No
Forced : No

Text #23
ID : 25
Format : UTF-8
Codec ID : S_TEXT/UTF8
Codec ID/Info : UTF-8 Plain Text
Duration : 1 h 6 min
Bit rate : 21 b/s
Frame rate : 0.105 FPS
Count of elements : 416
Stream size : 10.4 KiB (0%)
Language : Japanese
Default : No
Forced : No

Text #24
ID : 26
Format : UTF-8
Codec ID : S_TEXT/UTF8
Codec ID/Info : UTF-8 Plain Text
Duration : 1 h 6 min
Bit rate : 59 b/s
Frame rate : 0.104 FPS
Count of elements : 415
Stream size : 28.7 KiB (0%)
Language : Kannada
Default : No
Forced : No

Text #25
ID : 27
Format : UTF-8
Codec ID : S_TEXT/UTF8
Codec ID/Info : UTF-8 Plain Text
Duration : 1 h 6 min
Bit rate : 26 b/s
Frame rate : 0.105 FPS
Count of elements : 417
Stream size : 12.8 KiB (0%)
Language : Korean
Default : No
Forced : No

Text #26
ID : 28
Format : UTF-8
Codec ID : S_TEXT/UTF8
Codec ID/Info : UTF-8 Plain Text
Duration : 1 h 6 min
Bit rate : 64 b/s
Frame rate : 0.105 FPS
Count of elements : 417
Stream size : 31.2 KiB (0%)
Language : Malayalam
Default : No
Forced : No

Text #27
ID : 29
Format : UTF-8
Codec ID : S_TEXT/UTF8
Codec ID/Info : UTF-8 Plain Text
Duration : 1 h 6 min
Bit rate : 21 b/s
Frame rate : 0.104 FPS
Count of elements : 416
Stream size : 10.6 KiB (0%)
Language : Malay
Default : No
Forced : No

Text #28
ID : 30
Format : UTF-8
Codec ID : S_TEXT/UTF8
Codec ID/Info : UTF-8 Plain Text
Duration : 1 h 6 min
Bit rate : 21 b/s
Frame rate : 0.105 FPS
Count of elements : 417
Stream size : 10.3 KiB (0%)
Language : Norwegian Bokmal
Default : No
Forced : No

Text #29
ID : 31
Format : UTF-8
Codec ID : S_TEXT/UTF8
Codec ID/Info : UTF-8 Plain Text
Duration : 1 h 6 min
Bit rate : 22 b/s
Frame rate : 0.104 FPS
Count of elements : 416
Stream size : 10.8 KiB (0%)
Language : Dutch
Default : No
Forced : No

Text #30
ID : 32
Format : UTF-8
Codec ID : S_TEXT/UTF8
Codec ID/Info : UTF-8 Plain Text
Duration : 1 h 6 min
Bit rate : 20 b/s
Frame rate : 0.105 FPS
Count of elements : 417
Stream size : 10.0 KiB (0%)
Language : Polish
Default : No
Forced : No

Text #31
ID : 33
Format : UTF-8
Codec ID : S_TEXT/UTF8
Codec ID/Info : UTF-8 Plain Text
Duration : 1 h 6 min
Bit rate : 21 b/s
Frame rate : 0.105 FPS
Count of elements : 417
Stream size : 10.6 KiB (0%)
Title : Brazilian
Language : Portuguese
Default : No
Forced : No

Text #32
ID : 34
Format : UTF-8
Codec ID : S_TEXT/UTF8
Codec ID/Info : UTF-8 Plain Text
Duration : 1 h 6 min
Bit rate : 21 b/s
Frame rate : 0.105 FPS
Count of elements : 417
Stream size : 10.6 KiB (0%)
Language : Portuguese
Default : No
Forced : No

Text #33
ID : 35
Format : UTF-8
Codec ID : S_TEXT/UTF8
Codec ID/Info : UTF-8 Plain Text
Duration : 1 h 6 min
Bit rate : 23 b/s
Frame rate : 0.104 FPS
Count of elements : 413
Stream size : 11.6 KiB (0%)
Language : Romanian
Default : No
Forced : No

Text #34
ID : 36
Format : UTF-8
Codec ID : S_TEXT/UTF8
Codec ID/Info : UTF-8 Plain Text
Duration : 1 h 6 min
Bit rate : 35 b/s
Frame rate : 0.105 FPS
Count of elements : 417
Stream size : 17.3 KiB (0%)
Language : Russian
Default : No
Forced : No

Text #35
ID : 37
Format : UTF-8
Codec ID : S_TEXT/UTF8
Codec ID/Info : UTF-8 Plain Text
Duration : 1 h 6 min
Bit rate : 21 b/s
Frame rate : 0.104 FPS
Count of elements : 416
Stream size : 10.5 KiB (0%)
Language : Swedish
Default : No
Forced : No

Text #36
ID : 38
Format : UTF-8
Codec ID : S_TEXT/UTF8
Codec ID/Info : UTF-8 Plain Text
Duration : 1 h 6 min
Bit rate : 61 b/s
Frame rate : 0.105 FPS
Count of elements : 417
Stream size : 30.0 KiB (0%)
Language : Tamil
Default : No
Forced : No

Text #37
ID : 39
Format : UTF-8
Codec ID : S_TEXT/UTF8
Codec ID/Info : UTF-8 Plain Text
Duration : 1 h 6 min
Bit rate : 58 b/s
Frame rate : 0.104 FPS
Count of elements : 415
Stream size : 28.2 KiB (0%)
Language : Telugu
Default : No
Forced : No

Text #38
ID : 40
Format : UTF-8
Codec ID : S_TEXT/UTF8
Codec ID/Info : UTF-8 Plain Text
Duration : 1 h 6 min
Bit rate : 54 b/s
Frame rate : 0.105 FPS
Count of elements : 416
Stream size : 26.5 KiB (0%)
Language : Thai
Default : No
Forced : No

Text #39
ID : 41
Format : UTF-8
Codec ID : S_TEXT/UTF8
Codec ID/Info : UTF-8 Plain Text
Duration : 1 h 6 min
Bit rate : 21 b/s
Frame rate : 0.104 FPS
Count of elements : 413
Stream size : 10.6 KiB (0%)
Language : Turkish
Default : No
Forced : No

Text #40
ID : 42
Format : UTF-8
Codec ID : S_TEXT/UTF8
Codec ID/Info : UTF-8 Plain Text
Duration : 1 h 6 min
Bit rate : 35 b/s
Frame rate : 0.105 FPS
Count of elements : 417
Stream size : 17.5 KiB (0%)
Title : Ukraine
Language : Ukrainian
Default : No
Forced : No

Text #41
ID : 43
Format : UTF-8
Codec ID : S_TEXT/UTF8
Codec ID/Info : UTF-8 Plain Text
Duration : 1 h 6 min
Bit rate : 28 b/s
Frame rate : 0.105 FPS
Count of elements : 417
Stream size : 13.9 KiB (0%)
Title : Vietnam
Language : Vietnamese
Default : No
Forced : No

Text #42
ID : 44
Format : UTF-8
Codec ID : S_TEXT/UTF8
Codec ID/Info : UTF-8 Plain Text
Duration : 1 h 6 min
Bit rate : 22 b/s
Frame rate : 0.105 FPS
Count of elements : 417
Stream size : 10.9 KiB (0%)
Title : Simplified
Language : Chinese
Default : No
Forced : No

Text #43
ID : 45
Format : UTF-8
Codec ID : S_TEXT/UTF8
Codec ID/Info : UTF-8 Plain Text
Duration : 1 h 6 min
Bit rate : 20 b/s
Frame rate : 0.105 FPS
Count of elements : 417
Stream size : 10.1 KiB (0%)
Title : Traditional
Language : Chinese
Default : No
Forced : No

Menu
00:00:00.000 : en:Prime Video
00:00:05.000 : en:Previously On
00:01:23.000 : en:Opening Credits
00:02:35.000 : en:Title Sequence
00:02:55.000 : en:Scene 5
00:06:38.000 : en:Scene 6
00:08:33.000 : en:Scene 7
00:08:54.000 : en:Scene 8
00:10:05.000 : en:Scene 9
00:11:52.000 : en:Scene 10
00:12:02.000 : en:Scene 11
00:12:59.000 : en:Scene 12
00:13:34.000 : en:Scene 13
00:17:30.000 : en:Scene 14
00:19:40.000 : en:Scene 15
00:25:00.000 : en:Scene 16
00:25:33.000 : en:Scene 17
00:27:06.000 : en:Scene 18
00:34:37.000 : en:Scene 19
00:35:04.000 : en:Scene 20
00:35:37.000 : en:Scene 21
00:36:02.000 : en:Scene 22
00:38:44.000 : en:Scene 23
00:39:52.000 : en:Scene 24
00:40:38.000 : en:Scene 25
00:41:26.000 : en:Scene 26
00:41:37.000 : en:Scene 27
00:42:12.000 : en:Scene 28
00:42:21.000 : en:Scene 29
00:43:19.000 : en:Scene 30
00:45:15.000 : en:Scene 31
00:46:11.000 : en:Scene 32
00:51:03.000 : en:Scene 33
00:51:52.000 : en:Scene 34
00:54:27.000 : en:Scene 35
00:56:57.000 : en:Scene 36
00:58:46.000 : en:Scene 37
00:59:46.000 : en:Scene 38
01:04:26.000 : en:End Credits

Files:

The.Lord.of.the.Rings.The.Rings.of.Power.S01E06.1080p.AMZN.WEBRip.DDP5.1.x264-SMURF[rartv]
  • RARBG.txt (0.0 KB)
  • The.Lord.of.the.Rings.The.Rings.of.Power.S01E06.Udun.1080p.AMZN.WEB-DL.DDP5.1.H.264-SMURF.mkv (3.9 GB)

Comments

Code:

  • http://tracker.trackerfix.com:80/announce
  • udp://9.rarbg.me:2940/announce
  • udp://9.rarbg.to:2900/announce
  • udp://tracker.fatkhoala.org:13760/announce
  • udp://tracker.thinelephant.org:12710/announce