Ponniyin.Selvan.Part.1.(2022).720p.10Bit.HEVC.AMZN.WEBRip.Hindi.(...

  • Category Movies
  • Type Bollywood
  • Language Hindi
  • Total size 1.9 GB
  • Uploaded By tmb001
  • Downloads 17042
  • Last checked 1 month ago
  • Date uploaded 1 month ago
  • Seeders 271
  • Leechers 34

Ponniyin Selvan: Part One

ActionDramaHistory

The Chola kingdom is under threat from forces both internal and external, and with crown prince Aaditha Karikalan, his younger brother Arunmozhi Varman and the emperor, Sundara Cholar separated by situations, it is up to a messenger to ensure the safety of the kingdom. Can he succeed in his mission, especially with Karikalan's former girlfriend, Nandhini, plotting to bring down the entire Chola empire?

Infohash : E58034AA40E4297B6534E459CACE60AB08B828B1




Ponniyin.Selvan.Part.1.(2022).720p.10Bit.HEVC.AMZN.WEBRip.Hindi.(Cam Cleaned).H.265-themoviesboss




Note: Hindi Audio is Cam Cleaned




Media Info




Format                                   : Matroska
Format version                           : Version 4
File size                                : 1.89 GiB
Duration                                 : 2 h 46 min
Overall bit rate mode                    : Variable
Overall bit rate                         : 1 623 kb/s
Encoded date                             : UTC 2022-10-28 05:30:27
Writing library                          : libebml v1.4.2 + libmatroska v1.6.4 / Lavf58.76.100

Video
ID                                       : 1
Format                                   : HEVC
Format/Info                              : High Efficiency Video Coding
Format profile                           : Main [email protected]@Main
Codec ID                                 : V_MPEGH/ISO/HEVC
Duration                                 : 2 h 46 min
Bit rate                                 : 1 493 kb/s
Width                                    : 1 280 pixels
Height                                   : 532 pixels
Display aspect ratio                     : 2.40:1
Frame rate mode                          : Constant
Frame rate                               : 24.000 FPS
Color space                              : YUV
Chroma subsampling                       : 4:2:0 (Type 0)
Bit depth                                : 10 bits
Bits/(Pixel*Frame)                       : 0.091
Stream size                              : 1.74 GiB (92%)
Writing library                          : x265 3.5+1-f0c1022b6:[Windows][GCC 10.2.0][64 bit] 10bit
Default                                  : Yes
Forced                                   : No
Color range                              : Limited
Color primaries                          : BT.709
Transfer characteristics                 : BT.709
Matrix coefficients                      : BT.709

Audio
ID                                       : 2
Format                                   : MPEG Audio
Format version                           : Version 1
Format profile                           : Layer 3
Format settings                          : Joint stereo / MS Stereo
Codec ID                                 : A_MPEG/L3
Codec ID/Hint                            : MP3
Duration                                 : 2 h 46 min
Bit rate mode                            : Variable
Bit rate                                 : 128 kb/s
Channel(s)                               : 2 channels
Sampling rate                            : 44.1 kHz
Frame rate                               : 38.281 FPS (1152 SPF)
Compression mode                         : Lossy
Delay relative to video                  : -21 ms
Stream size                              : 152 MiB (8%)
Title                                    : themoviesboss
Writing library                          : LAME3.98r
Encoding settings                        : -m j -V 0 -q 3 --abr 128
Language                                 : Hindi
Default                                  : Yes
Forced                                   : No

Text #1
ID                                       : 3
Format                                   : ASS
Codec ID                                 : S_TEXT/ASS
Codec ID/Info                            : Advanced Sub Station Alpha
Duration                                 : 30 s 200 ms
Bit rate                                 : 45 b/s
Frame rate                               : 0.033 FPS
Count of elements                        : 1
Compression mode                         : Lossless
Stream size                              : 171 Bytes (0%)
Title                                    : TheMoviesBoss
Language                                 : English
Default                                  : No
Forced                                   : No

Text #2
ID                                       : 4
Format                                   : ASS
Codec ID                                 : S_TEXT/ASS
Codec ID/Info                            : Advanced Sub Station Alpha
Duration                                 : 2 h 38 min
Bit rate                                 : 79 b/s
Frame rate                               : 0.171 FPS
Count of elements                        : 1625
Compression mode                         : Lossless
Stream size                              : 92.2 KiB (0%)
Title                                    : themoviesboss[Full]
Language                                 : English
Default                                  : Yes
Forced                                   : Yes



Screenshots:



















Files:

  • TheMoviesBoss - Ponniyin.Selvan.Part.1.(2022).720p.10Bit.HEVC.AMZN.WEBRip.Hindi.(Cam Cleaned).H.265-themoviesboss.mkv (1.9 GB)

Comments

Code:

  • udp://tracker.tiny-vps.com:6969/announce
  • udp://fasttracker.foreverpirates.co:6969/announce
  • udp://tracker.opentrackr.org:1337/announce
  • udp://explodie.org:6969/announce
  • udp://open.stealth.si:80/announce
  • udp://tracker.cyberia.is:6969/announce
  • udp://ipv4.tracker.harry.lu:80/announce
  • udp://tracker.uw0.xyz:6969/announce
  • udp://tracker.dler.org:6969/announce
  • udp://9.rarbg.to:2710/announce
  • udp://open.demonii.com:1337/announce
  • udp://zecircle.xyz:6969/announce
  • udp://tracker.leech.ie:1337/announce
  • udp://tracker.pomf.se:80/announce
  • udp://run-2.publictracker.xyz:6969/announce