The Garden of Sinners Chapter 5: Paradox Spiral (2008) (1080p x26...

  • Category Anime
  • Type Subbed
  • Language Japanese
  • Total size 11.4 GB
  • Uploaded By Prof
  • Downloads 32
  • Last checked 2 days ago
  • Date uploaded 1 week ago
  • Seeders 1
  • Leechers 0

Infohash : 27322F64DE1DB19F7DF9A7376B0AC451B393CF1C










Code:

General

Format : Matroska
Format version : Version 4
File size : 11.4 GiB
Duration : 1 h 53 min
Overall bit rate mode : Variable
Overall bit rate : 14.3 Mb/s
Encoded date : UTC 2022-08-04 02:38:57
Writing application : mkvmerge v67.0.0 ('Under Stars') 64-bit
Writing library : libebml v1.4.2 + libmatroska v1.6.4
Attachments : AbyssTSFont.ttf / AJensonPro-SemiboldItSubh.ttf / AJensonPro-SemiboldSubh.ttf / AppleGaramond.ttf / arial.ttf / AvenirLTStd-Medium.otf / BPreplay.otf / CerigoStd-Medium.otf / ChaparralPro-Semibold.ttf / ChaparralPro-SemiboldIt.ttf / CHOLO___.ttf / erasdus0.ttf / FrancophilSans.ttf / Georgia Italic.ttf / Georgia.ttf / HiroshigeStd-Book.otf / laurencb.ttf / NITEMARE.ttf

Video
ID : 1
Format : HEVC
Format/Info : High Efficiency Video Coding
Format profile : Main [email protected]@Main
Codec ID : V_MPEGH/ISO/HEVC
Duration : 1 h 53 min
Bit rate : 12.9 Mb/s
Width : 1 920 pixels
Height : 1 080 pixels
Display aspect ratio : 16:9
Frame rate mode : Variable
Frame rate : 23.976 (24000/1001) FPS
Color space : YUV
Chroma subsampling : 4:2:0
Bit depth : 10 bits
Bits/(Pixel*Frame) : 0.259
Stream size : 10.2 GiB (90%)
Writing library : x265 3.5+37+12-4e46995bc:[Windows][MSVC 1931][64 bit] 10bit
Encoding settings : cpuid=1111039 / frame-threads=4 / numa-pools=24 / wpp / no-pmode / no-pme / no-psnr / no-ssim / log-level=2 / input-csp=1 / input-res=1920x1080 / interlace=0 / total-frames=163848 / level-idc=0 / high-tier=1 / uhd-bd=0 / ref=5 / no-allow-non-conformance / no-repeat-headers / annexb / no-aud / no-eob / no-eos / no-hrd / info / hash=0 / no-temporal-layers / open-gop / min-keyint=23 / keyint=250 / gop-lookahead=0 / bframes=8 / b-adapt=2 / b-pyramid / bframe-bias=0 / rc-lookahead=80 / lookahead-slices=0 / scenecut=40 / no-hist-scenecut / radl=0 / no-splice / no-intra-refresh / ctu=64 / min-cu-size=8 / rect / amp / max-tu-size=32 / tu-inter-depth=4 / tu-intra-depth=4 / limit-tu=0 / rdoq-level=2 / dynamic-rd=0.00 / no-ssim-rd / signhide / tskip / nr-intra=0 / nr-inter=0 / no-constrained-intra / strong-intra-smoothing / max-merge=5 / limit-refs=0 / no-limit-modes / me=3 / subme=5 / merange=92 / temporal-mvp / no-frame-dup / no-hme / weightp / weightb / no-analyze-src-pics / deblock=0:0 / sao / no-sao-non-deblock / rd=6 / selective-sao=4 / no-early-skip / no-rskip / no-fast-intra / no-tskip-fast / no-cu-lossless / b-intra / no-splitrd-skip / rdpenalty=0 / psy-rd=2.00 / psy-rdoq=1.00 / no-rd-refine / no-lossless / cbqpoffs=0 / crqpoffs=0 / rc=crf / crf=19.0 / qcomp=0.60 / qpstep=4 / stats-write=0 / stats-read=0 / ipratio=1.40 / pbratio=1.30 / aq-mode=3 / aq-strength=1.00 / aq-bias-strength=1.00 / cutree / zone-count=0 / no-strict-cbr / qg-size=32 / no-rc-grain / qpmax=69 / qpmin=0 / no-const-vbv / sar=0 / overscan=0 / videoformat=5 / range=0 / colorprim=1 / transfer=1 / colormatrix=1 / chromaloc=0 / display-window=0 / cll=0,0 / min-luma=0 / max-luma=1023 / log2-max-poc-lsb=8 / vui-timing-info / vui-hrd-info / slices=1 / no-opt-qp-pps / no-opt-ref-list-length-pps / no-multi-pass-opt-rps / scenecut-bias=0.05 / hist-threshold=0.03 / no-opt-cu-delta-qp / no-aq-motion / no-hdr10 / no-hdr10-opt / no-dhdr10-opt / no-idr-recovery-sei / analysis-reuse-level=0 / analysis-save-reuse-level=0 / analysis-load-reuse-level=0 / scale-factor=0 / refine-intra=0 / refine-inter=0 / refine-mv=1 / refine-ctu-distortion=0 / no-limit-sao / ctu-info=0 / no-lowpass-dct / refine-analysis-type=0 / copy-pic=1 / max-ausize-factor=1.0 / no-dynamic-refine / no-single-sei / no-hevc-aq / no-svt / no-field / qp-adaptation-range=1.00 / scenecut-aware-qp=0conformance-window-offsets / right=0 / bottom=0 / decoder-max-rate=0 / no-vbv-live-multi-pass
Default : Yes
Forced : No
Color range : Limited
Color primaries : BT.709
Transfer characteristics : BT.709
Matrix coefficients : BT.709

Audio
ID : 2
Format : FLAC
Format/Info : Free Lossless Audio Codec
Codec ID : A_FLAC
Duration : 1 h 53 min
Bit rate mode : Variable
Bit rate : 1 414 kb/s
Channel(s) : 2 channels
Channel layout : L R
Sampling rate : 48.0 kHz
Frame rate : 10.417 FPS (4608 SPF)
Bit depth : 24 bits
Compression mode : Lossless
Stream size : 1.12 GiB (10%)
Title : FLAC 2.0
Writing library : Lavf59.20.101
Language : Japanese
Default : Yes
Forced : No

Text
ID : 3
Format : ASS
Codec ID : S_TEXT/ASS
Codec ID/Info : Advanced Sub Station Alpha
Duration : 1 h 53 min
Bit rate : 115 b/s
Count of elements : 1346
Compression mode : Lossless
Stream size : 96.4 KiB (0%)
Title : Styled Subs [Retail]
Language : English
Default : Yes
Forced : No

Menu
00:00:00.000 : en:00:00:00.000
00:03:41.972 : en:00:03:41.972
00:06:17.711 : en:00:06:17.711
00:17:02.021 : en:00:17:02.021
00:24:00.147 : en:00:24:00.147
00:33:41.478 : en:00:33:41.478
00:41:47.046 : en:00:41:47.046
00:48:36.413 : en:00:48:36.413
00:57:29.154 : en:00:57:29.154
01:03:30.265 : en:01:03:30.265
01:06:19.309 : en:01:06:19.309
01:13:11.304 : en:01:13:11.304
01:18:10.102 : en:01:18:10.102
01:24:26.395 : en:01:24:26.395
01:35:51.788 : en:01:35:51.788
01:44:26.802 : en:01:44:26.802
01:46:05.693 : en:01:46:05.693
01:51:07.995 : en:01:51:07.995
01:52:31.745 : en:01:52:31.745



Source: Remux 29.2 GB

Files:

  • The Garden of Sinners Chapter 5 - Paradox Spiral (2008).mkv (11.4 GB)

There are currently no comments. Feel free to leave one :)

Code:

  • udp://tracker.opentrackr.org:1337/announce
  • udp://tracker.torrent.eu.org:451/announce
  • http://tracker.openbittorrent.com:80/announce
  • udp://opentracker.i2p.rocks:6969/announce
  • udp://tracker.internetwarriors.net:1337/announce
  • udp://tracker.leechers-paradise.org:6969/announce
  • udp://coppersurfer.tk:6969/announce
  • udp://tracker.zer0day.to:1337/announce