Gli.Spiriti.Dell'Isola.2022.iTA-ENG.WEBDL.2160p.HDR.x265-CYBER.mk...

  • Category Movies
  • Type HEVC/x265
  • Language English
  • Total size 20.2 GB
  • Uploaded By eXpOrTeRICV
  • Downloads 107
  • Last checked 1 hour ago
  • Date uploaded 6 days ago
  • Seeders 17
  • Leechers 3

Infohash : BE7340EDBC1200949C0A6F9143C10169CE8057F0




DATI - TRAMA

Data di uscita 2 Febbraio 2023 (Italia)
21 Ottobre 2022 (USA)
Genere Drammatico , Commedia
Anno 2022
Regia Martin McDonagh
Attori Brendan Gleeson, Colin Farrell, Barry Keoghan, Kerry Condon, Jerry Fitzgerald
Paese Irlanda, Regno Unito, USA
Durata 109 Min
Distribuzione Walt Disney Studios Motion Pictures Italia

Due amici di lunga data, Padraic e Colm, si trovano in una situazione di stallo quando Colm decide bruscamente di porre fine alla loro amicizia. Padraic, confuso e devastato, tenta di riaccendere il loro rapporto con il supporto di sua sorella Siobhan, che insieme a Dominic, il figlio del poliziotto locale, ha le sue preoccupazioni all'interno della piccola comunità di un'isola dell'Irlanda. Ma quando Colm lancia un ultimatum scioccante per concretizzare le proprie intenzioni, gli eventi iniziano a degenerare.


IMMAGINI





REPORT


General
Unique ID : 126391228970420206691306737202805294593 (0x5F1610B4C2FA29F89C15136C88474601)
Complete name : E:\Gli.Spiriti.Dell'Isola.2022.iTA-ENG.WEBDL.2160p.HDR.x265-CYBER.mkv
Format : Matroska
Format version : Version 4
File size : 20.2 GiB
Duration : 1 h 53 min
Overall bit rate : 25.4 Mb/s
Movie name : ENJOY
Encoded date : UTC 2023-01-22 13:03:21
Writing application : mkvmerge v72.0.0 ('Minuano (Six-eight)') 64-bit
Writing library : libebml v1.4.4 + libmatroska v1.7.1

Video
ID : 1
Format : HEVC
Format/Info : High Efficiency Video Coding
Format profile : Main [email protected]@High
HDR format : Dolby Vision, Version 1.0, dvhe.08.06, BL+RPU, HDR10 compatible / SMPTE ST 2086, HDR10 compatible
Codec ID : V_MPEGH/ISO/HEVC
Duration : 1 h 53 min
Bit rate : 24.2 Mb/s
Width : 3 840 pixels
Height : 2 160 pixels
Display aspect ratio : 16:9
Frame rate mode : Constant
Frame rate : 23.976 (24000/1001) FPS
Color space : YUV
Chroma subsampling : 4:2:0 (Type 2)
Bit depth : 10 bits
Bits/(Pixel*Frame) : 0.122
Stream size : 19.3 GiB (95%)
Language : English
Default : Yes
Forced : No
Color range : Limited
Color primaries : BT.2020
Transfer characteristics : PQ
Matrix coefficients : BT.2020 non-constant
Mastering display color primaries : Display P3
Mastering display luminance : min: 0.0001 cd/m2, max: 1000 cd/m2
Maximum Content Light Level : 501 cd/m2
Maximum Frame-Average Light Level : 110 cd/m2

Audio #1
ID : 2
Format : E-AC-3
Format/Info : Enhanced AC-3
Commercial name : Dolby Digital Plus
Codec ID : A_EAC3
Duration : 1 h 53 min
Bit rate mode : Constant
Bit rate : 256 kb/s
Channel(s) : 6 channels
Channel layout : L R C LFE Ls Rs
Sampling rate : 48.0 kHz
Frame rate : 31.250 FPS (1536 SPF)
Compression mode : Lossy
Stream size : 209 MiB (1%)
Title : E-AC3 iTA
Language : Italian
Service kind : Complete Main
Default : Yes
Forced : No

Audio #2
ID : 3
Format : AC-3
Format/Info : Audio Coding 3
Commercial name : Dolby Digital
Codec ID : A_AC3
Duration : 1 h 53 min
Bit rate mode : Constant
Bit rate : 256 kb/s
Channel(s) : 6 channels
Channel layout : L R C LFE Ls Rs
Sampling rate : 48.0 kHz
Frame rate : 31.250 FPS (1536 SPF)
Compression mode : Lossy
Stream size : 209 MiB (1%)
Title : AC3 iTA
Language : Italian
Service kind : Complete Main
Default : Yes
Forced : No

Audio #3
ID : 4
Format : AC-3
Format/Info : Audio Coding 3
Commercial name : Dolby Digital
Codec ID : A_AC3
Duration : 1 h 53 min
Bit rate mode : Constant
Bit rate : 640 kb/s
Channel(s) : 6 channels
Channel layout : L R C LFE Ls Rs
Sampling rate : 48.0 kHz
Frame rate : 31.250 FPS (1536 SPF)
Compression mode : Lossy
Stream size : 521 MiB (3%)
Title : AC3 ENG
Language : English
Service kind : Complete Main
Default : No
Forced : No

Text #1
ID : 5
Format : UTF-8
Codec ID : S_TEXT/UTF8
Codec ID/Info : UTF-8 Plain Text
Duration : 1 h 32 min
Bit rate : 0 b/s
Count of elements : 2
Stream size : 36.0 Bytes (0%)
Title : FORCED
Language : Italian
Default : No
Forced : Yes

Text #2
ID : 6
Format : UTF-8
Codec ID : S_TEXT/UTF8
Codec ID/Info : UTF-8 Plain Text
Duration : 1 h 51 min
Bit rate : 42 b/s
Count of elements : 1194
Stream size : 35.0 KiB (0%)
Title : REGOLARI
Language : Italian
Default : No
Forced : No

Text #3
ID : 7
Format : UTF-8
Codec ID : S_TEXT/UTF8
Codec ID/Info : UTF-8 Plain Text
Duration : 1 h 48 min
Bit rate : 54 b/s
Count of elements : 1444
Stream size : 43.8 KiB (0%)
Title : NON UDENTI
Language : English
Default : No
Forced : No

Menu
00:00:00.000 : en:Chapter 01
00:05:01.510 : en:Chapter 02
00:10:50.859 : en:Chapter 03
00:17:25.878 : en:Chapter 04
00:19:42.014 : en:Chapter 05
00:25:51.633 : en:Chapter 06
00:29:42.948 : en:Chapter 07
00:33:21.750 : en:Chapter 08
00:36:56.756 : en:Chapter 09
00:39:54.475 : en:Chapter 10
00:45:43.366 : en:Chapter 11
00:53:22.658 : en:Chapter 12
00:59:10.088 : en:Chapter 13
01:03:36.104 : en:Chapter 14
01:07:40.265 : en:Chapter 15
01:12:10.910 : en:Chapter 16
01:14:56.117 : en:Chapter 17
01:19:59.253 : en:Chapter 18
01:23:44.144 : en:Chapter 19
01:34:26.703 : en:Chapter 20
01:36:50.263 : en:Chapter 21
01:43:49.432 : en:Chapter 22
01:47:55.260 : en:Chapter 23

GOOD DOWNLOAD



Files:

  • Gli.Spiriti.Dell'Isola.2022.iTA-ENG.WEBDL.2160p.HDR.x265-CYBER.mkv (20.2 GB)

There are currently no comments. Feel free to leave one :)

Code:

  • udp://tracker.opentrackr.org:1337/announce
  • udp://tracker.torrent.eu.org:451/announce
  • udp://open.stealth.si:80/announce
  • http://tracker.bt4g.com:2095/announce
  • udp://tracker.openbittorrent.com:80/announce
  • udp://tracker.tiny-vps.com:6969/announce
  • udp://p4p.arenabg.com:1337/announce
  • udp://explodie.org:6969/announce
  • udp://exodus.desync.com:6969/announce
  • udp://9.rarbg.me:2900/announce
  • udp://9.rarbg.to:2960/announce