M3gan (2023) (1080p DS4K 10bit MA WEBRip DDP5.1 Esub HEVC - IONIC...

  • Category Movies
  • Type HEVC/x265
  • Language English
  • Total size 2.4 GB
  • Uploaded By IONICBOII
  • Downloads 334
  • Last checked 31 minutes ago
  • Date uploaded 6 days ago
  • Seeders 17
  • Leechers 10

M3GAN

Science FictionHorrorComedy

A brilliant toy company roboticist uses artificial intelligence to develop M3GAN, a life-like doll programmed to emotionally bond with her newly orphaned niece. But when the doll's programming works too well, she becomes overprotective of her new friend with terrifying results.

Infohash : E7FD6527A0262DF6543A632CFDF4CAEBB1854CF5



Join Our Telegram For More Updates And Encodes




M3GAN | 1080p | DS4K | 10bit  


🔉 English DDP5.1 





SCREEN SHOTS


















MEDIA INFO



Code:



General
Format : Matroska
Format version : Version 4 / Version 2
File size : 2.44 GiB
Duration : 1 h 41 min
Overall bit rate : 3 425 kb/s

Video
ID : 1
Format : HEVC
Format/Info : High Efficiency Video Coding
Format profile : Main [email protected]@Main
Codec ID : V_MPEGH/ISO/HEVC
Duration : 1 h 41 min
Bit rate : 2 655 kb/s
Width : 1 918 pixels
Height : 804 pixels
Display aspect ratio : 2.40:1
Frame rate mode : Constant
Frame rate : 23.976 (24000/1001) FPS
Color space : YUV
Chroma subsampling : 4:2:0 (Type 0)
Bit depth : 10 bits
Bits/(Pixel*Frame) : 0.072
Stream size : 1.89 GiB (78%)
Title : 1080p || DS4K || 10bit || IONICBOY
Default : Yes
Forced : No
Color range : Limited
Color primaries : BT.709
Transfer characteristics : BT.709
Matrix coefficients : BT.709

Audio
ID : 2
Format : E-AC-3
Format/Info : Enhanced Audio Coding 3
Format profile : E-AC-3+Atmos / E-AC-3
Format settings, Endianness : Big
Codec ID : A_EAC3
Duration : 1 h 41 min
Bit rate mode : Constant
Bit rate : 768 kb/s
Channel(s) : 15 objects / 6 channels
Channel positions : 15 objects / Front: L C R, Side: L R, LFE
Sampling rate : 48.0 kHz
Frame rate : 187.500 FPS (256 SPF)
Compression mode : Lossy
Stream size : 560 MiB (22%)
Title : [Ionicboy] English
Language : English
Service kind : Complete Main
Default : Yes
Forced : No

Text #1
ID : 3
Format : UTF-8
Codec ID : S_TEXT/UTF8
Codec ID/Info : UTF-8 Plain Text
Duration : 1 h 41 min
Bit rate : 76 b/s
Count of elements : 1870
Stream size : 57.4 KiB (0%)
Title : [Ionicboy] English
Language : English
Default : Yes
Forced : No

Text #2
ID : 4
Format : UTF-8
Codec ID : S_TEXT/UTF8
Codec ID/Info : UTF-8 Plain Text
Duration : 1 h 41 min
Bit rate : 69 b/s
Count of elements : 1648
Stream size : 51.4 KiB (0%)
Title : [Ionicboy] English
Language : English
Default : No
Forced : No





Quote:


Video Source : 2160P MA WEBDL HDR - CM






Files:

  • M3gan (2023) (1080p DS4K 10bit MA WEBRip DDP5.1 Esub HEVC - IONICBOY).mkv (2.4 GB)

Comments

Code:

  • udp://tracker.opentrackr.org:1337/announce
  • udp://9.rarbg.com:2810/announce
  • udp://tracker.torrent.eu.org:451/announce
  • udp://tracker.dler.org:6969/announce
  • udp://p4p.arenabg.com:1337/announce
  • udp://opentracker.i2p.rocks:6969/announce
  • udp://open.stealth.si:80/announce
  • udp://open.demonii.com:1337/announce
  • udp://ipv4.tracker.harry.lu:80/announce
  • udp://explodie.org:6969/announce
  • udp://exodus.desync.com:6969/announce
  • https://tracker.nanoha.org:443/announce
  • https://tracker.lilithraws.org:443/announce
  • https://tr.burnabyhighstar.com:443/announce
  • https://opentracker.i2p.rocks:443/announce
  • udp://zecircle.xyz:6969/announce
  • udp://www.peckservers.com:9000/announce
  • udp://wepzone.net:6969/announce
  • udp://vibe.sleepyinternetfun.xyz:1738/announce
  • udp://v2.iperson.xyz:6969/announce