Glass Onion - A Knives Out Mystery (2022) English ( 720p WEB-DL N...

  • Category Movies
  • Type HD
  • Language English
  • Total size 1.1 GB
  • Uploaded By MikaSa16
  • Downloads 92
  • Last checked 54 minutes ago
  • Date uploaded 5 days ago
  • Seeders 9
  • Leechers 6

Glass Onion: A Knives Out Mystery

ComedyCrimeMystery

World-famous detective Benoit Blanc heads to Greece to peel back the layers of a mystery surrounding a tech billionaire and his eclectic crew of friends.

Infohash : D364406C9ED6BA9FD71763615862726DC103A2D0





Glass Onion - A Knives Out Mystery (2022) English ( 720p WEB-DL NF AV1 8bit Opus 2.0 ESub ) – [MCX]


https://m.imdb.com/title/tt11564570/




𝗦𝗖𝗥𝗘𝗘𝗡 𝗦𝗛𝗢𝗧𝗦 📸






Quote:

𝗔𝗡 𝗘𝗫𝗣𝗘𝗥𝗜𝗠𝗘𝗡𝗧𝗔𝗟 𝗘𝗡𝗖𝗢𝗗𝗘 - 𝗦𝗘𝗘𝗗 𝗕𝗔𝗖𝗞 𝗣𝗟𝗘𝗔𝗦𝗘 🔥



Code:

𝗠𝗘𝗗𝗜𝗔𝗜𝗡𝗙𝗢



General
Unique ID                                : 151669312729518263547233488428885412491 (0x721A7275584BA2943B2CF3F7FDED0A8B)
Complete name                            : Glass Onion - A Knives Out Mystery (2022) English ( 720p WEB-DL NF AV1 8bit Opus 2.0 ESub ) – [MCX].mkv
Format                                   : Matroska
Format version                           : Version 4
File size                                : 1.12 GiB
Duration                                 : 2 h 21 min
Overall bit rate                         : 1 134 kb/s
Movie name                               : Glass Onion - A Knives Out Mystery (2022)  |  Encoded By [MCX]
Encoded date                             : UTC 2022-12-24 07:52:28
Writing application                      : mkvmerge v59.0.0 ('Shining Star') 64-bit
Writing library                          : libebml v1.4.2 + libmatroska v1.6.4
Cover                                    : Yes
Attachments                              : cover.jpg
FileExtension_Invalid                    : mkv mk3d mka mks

Video
ID                                       : 1
Format                                   : AV1
Format/Info                              : AOMedia Video 1
Format profile                           : [email protected]
Codec ID                                 : V_AV1
Duration                                 : 2 h 21 min
Bit rate                                 : 1 071 kb/s
Width                                    : 1 280 pixels
Height                                   : 688 pixels
Display aspect ratio                     : 1.85:1
Frame rate mode                          : Variable
Frame rate                               : 24.000 FPS
Color space                              : YUV
Chroma subsampling                       : 4:2:0
Bit depth                                : 8 bits
Bits/(Pixel*Frame)                       : 0.051
Stream size                              : 1.05 GiB (94%)
Title                                    : Glass Onion - A Knives Out Mystery (2022) - AV1  |  Encoded By [MCX]
Default                                  : Yes
Forced                                   : No
Color range                              : Limited

Audio
ID                                       : 2
Format                                   : Opus
Codec ID                                 : A_OPUS
Duration                                 : 2 h 21 min
Bit rate                                 : 60.7 kb/s
Channel(s)                               : 2 channels
Channel layout                           : L R
Sampling rate                            : 48.0 kHz
Frame rate                               : 50.000 FPS (960 SPF)
Compression mode                         : Lossy
Stream size                              : 61.2 MiB (5%)
Title                                    : English Opus 2.0 - [MCX]
Writing library                          : Lavc59.3.102 libopus
Language                                 : English
Default                                  : Yes
Forced                                   : No

Text
ID                                       : 3
Format                                   : UTF-8
Codec ID                                 : S_TEXT/UTF8
Codec ID/Info                            : UTF-8 Plain Text
Duration                                 : 2 h 13 min
Bit rate                                 : 85 b/s
Count of elements                        : 2340
Stream size                              : 84.0 KiB (0%)
Title                                    : English [SDH]
Language                                 : English
Default                                  : Yes
Forced                                   : No

Menu
00:00:00.000                             : Part 01
02:12:40.000                             : Credits


Files:

  • Glass Onion - A Knives Out Mystery (2022) English ( 720p WEB-DL NF AV1 8bit Opus 2.0 ESub ) – [MCX].mkv (1.1 GB)

There are currently no comments. Feel free to leave one :)

Code:

  • udp://tracker.leechers-paradise.org:6969/ANNOUNCE
  • udp://tracker.coppersurfer.tk:6969/ANNOUNCE
  • udp://tracker.opentrackr.org:1337/ANNOUNCE
  • udp://tracker.zer0day.to:1337/ANNOUNCE
  • udp://eddie4.nl:6969/ANNOUNCE