Pathaan 2023 Hindi 1080p HQ DVDScr AAC x264 - HDWebMovies

  • Category Movies
  • Type Bollywood
  • Language Hindi
  • Total size 4.0 GB
  • Uploaded By hdwebmovies
  • Downloads 2939
  • Last checked 1 hour ago
  • Date uploaded 3 days ago
  • Seeders 188
  • Leechers 131

Pathaan

ActionDramaThriller

A soldier caught by enemies and presumed dead comes back to complete his mission, accompanied by old companions and foes.

Infohash : 0DF484ED06BF89D0B145141D9EE6EC9036BE52B2




Media Info:



Quote:

Format : AVC
Format/Info : Advanced Video Codec
Format profile : [email protected]
Format settings : CABAC / 1 Ref Frames
Format settings, CABAC : Yes
Format settings, Reference frames : 1 frame
Format settings, GOP : M=1, N=30
Codec ID : V_MPEG4/ISO/AVC
Duration : 2 h 16 min
Bit rate : 4 000 kb/s
Width : 1 920 pixels
Height : 1 080 pixels
Display aspect ratio : 16:9
Frame rate mode : Constant
Frame rate : 25.000 FPS
Color space : YUV
Chroma subsampling : 4:2:0
Bit depth : 8 bits
Scan type : Progressive
Bits/(Pixel*Frame) : 0.077
Stream size : 3.82 GiB (95%)
Title : HDWebMovies
Default : Yes
Forced : No
Color range : Limited
Color primaries : BT.709
Transfer characteristics : BT.709
Matrix coefficients : BT.709

Audio
ID : 2
Format : AAC LC
Format/Info : Advanced Audio Codec Low Complexity
Codec ID : A_AAC-2
Duration : 2 h 16 min
Bit rate : 192 kb/s
Channel(s) : 2 channels
Channel layout : L R
Sampling rate : 44.1 kHz
Frame rate : 43.066 FPS (1024 SPF)
Compression mode : Lossy
Stream size : 188 MiB (5%)
Title : HDWebMovies
Default : Yes
Forced : No



Screenshots:














Note: this is our Own Source If you Repost this Please Give Proper Credit

Files:

Pathaan 2023 Hindi 1080p HQ DVDScr AAC x264 - HDWebMovies
  • Pathaan 2023 Hindi HQ DVDScr Sample - HDWebMovies.mkv (30.1 MB)
  • Pathaan 2023 Hindi 1080p HQ DVDScr AAC x264 - HDWebMovies.mkv (4.0 GB)

There are currently no comments. Feel free to leave one :)

Code:

  • udp://tracker.tiny-vps.com:6969/announce
  • udp://fasttracker.foreverpirates.co:6969/announce
  • udp://tracker.opentrackr.org:1337/announce
  • udp://explodie.org:6969/announce
  • udp://open.stealth.si:80/announce
  • udp://tracker.cyberia.is:6969/announce
  • udp://ipv4.tracker.harry.lu:80/announce
  • udp://tracker.uw0.xyz:6969/announce
  • udp://tracker.dler.org:6969/announce
  • udp://9.rarbg.to:2710/announce
  • udp://open.demonii.com:1337/announce
  • udp://zecircle.xyz:6969/announce
  • udp://tracker.leech.ie:1337/announce
  • udp://tracker.pomf.se:80/announce
  • udp://run-2.publictracker.xyz:6969/announce