Prey.for.the.Devil.(2022).2k.10bit.HDR10.Blu-Ray.[Org.DDP.7.1-Eng...

  • Category Movies
  • Type HEVC/x265
  • Language English
  • Total size 4.2 GB
  • Uploaded By PMZOfficial
  • Downloads 74
  • Last checked 53 minutes ago
  • Date uploaded 5 days ago
  • Seeders 2
  • Leechers 7

Infohash : 09B6CBEEDDE13124A22DCE04492CDBEB75AC7BD9





लौटकर फिर वही ज़माने आगये है,
पायरेसी की दुनिया को फिर वोह डराने आगये है,
मच गयी है हर तरफ खलबली यारो,
सुना है जंगल में शेर पुराने आगये है!






Prey.for.the.Devil.(2022).2k.10bit.HDR10.Blu-Ray.[Org.DDP.7.1-English].MSubs.HEVC ~ STENC [PMZ]


Code:

Media Info :

Complete name : Prey.for.the.Devil.(2022).2k.10bit.HDR10.Blu-Ray.[Org.DDP.7.1-English].MSubs.HEVC ~ STENC [PMZ].mkv
Format : Matroska
Format version : Version 4
File size : 4.25 GiB
Duration : 1 h 33 min
Overall bit rate : 6 524 kb/s
Movie name : PMZ Exclusive Release
Encoded date : UTC 2023-01-20 17:46:02
Writing application : mkvmerge v73.0.0 ('25 or 6 to 4') 64-bit
Writing library : libebml v1.4.4 + libmatroska v1.7.1
Cover : Yes
Attachments : Cover.png

Video
ID : 1
Format : HEVC
Format/Info : High Efficiency Video Coding
Format profile : Main [email protected]@Main
HDR format : SMPTE ST 2086, HDR10 compatible
Codec ID : V_MPEGH/ISO/HEVC
Duration : 1 h 33 min
Bit rate : 5 696 kb/s
Width : 2 560 pixels
Height : 1 066 pixels
Display aspect ratio : 2.40:1
Frame rate mode : Variable
Frame rate : 23.976 FPS
Color space : YUV
Chroma subsampling : 4:2:0 (Type 2)
Bit depth : 10 bits
Bits/(Pixel*Frame) : 0.087
Stream size : 3.71 GiB (87%)
Title : ~PMZ~
Language : English
Default : Yes
Forced : Yes
Color range : Limited
Color primaries : BT.2020
Transfer characteristics : PQ
Matrix coefficients : BT.2020 non-constant
Mastering display color primaries : Display P3
Mastering display luminance : min: 0.0001 cd/m2, max: 1000 cd/m2
Maximum Content Light Level : 1713 cd/m2
Maximum Frame-Average Light Level : 388 cd/m2

Audio
ID : 2
Format : E-AC-3
Format/Info : Enhanced AC-3
Commercial name : Dolby Digital Plus
Format settings : Dolby Surround EX
Codec ID : A_EAC3
Duration : 1 h 33 min
Bit rate mode : Constant
Bit rate : 768 kb/s
Channel(s) : 8 channels
Channel layout : L R C LFE Ls Rs Lb Rb
Sampling rate : 48.0 kHz
Frame rate : 31.250 FPS (1536 SPF)
Compression mode : Lossy
Stream size : 512 MiB (12%)
Title : ~PMZ~
Language : English
Service kind : Complete Main
Default : Yes
Forced : Yes

Text #1
ID : 3
ID in the original source medium : 4768 (0x12A0)
Format : PGS
Muxing mode : zlib
Codec ID : S_HDMV/PGS
Codec ID/Info : Picture based subtitle format used on BDs/HD-DVDs
Duration : 1 h 26 min
Bit rate : 31.0 kb/s
Count of elements : 2212
Stream size : 19.2 MiB (0%)
Language : English
Default : Yes
Forced : Yes
Original source medium : Blu-ray

Text #2
ID : 4
ID in the original source medium : 4769 (0x12A1)
Format : PGS
Muxing mode : zlib
Codec ID : S_HDMV/PGS
Codec ID/Info : Picture based subtitle format used on BDs/HD-DVDs
Duration : 1 h 32 min
Bit rate : 21.2 kb/s
Count of elements : 1600
Stream size : 14.0 MiB (0%)
Language : Spanish
Default : No
Forced : No
Original source medium : Blu-ray

Text #3
ID : 5
ID in the original source medium : 4769 (0x12A1)
Format : PGS
Muxing mode : zlib
Codec ID : S_HDMV/PGS
Codec ID/Info : Picture based subtitle format used on BDs/HD-DVDs
Duration : 2 min 54 s
Bit rate : 1 499 b/s
Count of elements : 4
Stream size : 31.9 KiB (0%)
Language : Spanish
Default : No
Forced : No
Original source medium : Blu-ray

Text #4
ID : 6
ID in the original source medium : 4770 (0x12A2)
Format : PGS
Muxing mode : zlib
Codec ID : S_HDMV/PGS
Codec ID/Info : Picture based subtitle format used on BDs/HD-DVDs
Duration : 1 h 26 min
Bit rate : 23.5 kb/s
Count of elements : 1508
Stream size : 14.4 MiB (0%)
Language : French
Default : No
Forced : No
Original source medium : Blu-ray

Text #5
ID : 7
ID in the original source medium : 4770 (0x12A2)
Format : PGS
Muxing mode : zlib
Codec ID : S_HDMV/PGS
Codec ID/Info : Picture based subtitle format used on BDs/HD-DVDs
Duration : 38 min 19 s
Bit rate : 2 043 b/s
Count of elements : 44
Stream size : 574 KiB (0%)
Language : French
Default : No
Forced : No
Original source medium : Blu-ray

Menu
00:00:00.000 : en:Chapter 01
00:03:38.509 : en:Chapter 02
00:11:02.995 : en:Chapter 03
00:17:43.187 : en:Chapter 04
00:23:15.477 : en:Chapter 05
00:31:54.621 : en:Chapter 06
00:35:28.793 : en:Chapter 07
00:42:59.326 : en:Chapter 08
00:47:39.523 : en:Chapter 09
00:55:41.588 : en:Chapter 10
00:59:14.926 : en:Chapter 11
01:04:20.398 : en:Chapter 12
01:07:03.352 : en:Chapter 13
01:11:11.642 : en:Chapter 14
01:20:41.086 : en:Chapter 15
01:24:56.174 : en:Chapter 16





If you plan on sharing this release elsewhere, please give proper credits to PMZ. Please do not alter any of the files in this release. Thank you!




📸Screenshots :




















Quote:

Source Info :
2160p BluRay REMUX


Files:

  • Prey.for.the.Devil.(2022).2k.10bit.HDR10.Blu-Ray.[Org.DDP.7.1-English].MSubs.HEVC ~ STENC [PMZ].mkv (4.2 GB)

Comments

Code:

  • udp://tracker.opentrackr.org:1337/announce
  • udp://9.rarbg.com:2810/announce
  • udp://tracker.torrent.eu.org:451/announce
  • udp://tracker.moeking.me:6969/announce
  • udp://tracker.dler.org:6969/announce
  • udp://tracker.altrosky.nl:6969/announce
  • udp://p4p.arenabg.com:1337/announce
  • udp://opentracker.i2p.rocks:6969/announce
  • udp://open.stealth.si:80/announce
  • udp://open.demonii.com:1337/announce
  • udp://explodie.org:6969/announce
  • udp://exodus.desync.com:6969/announce
  • https://tracker.nanoha.org:443/announce
  • https://tracker.lilithraws.org:443/announce
  • https://tr.burnabyhighstar.com:443/announce
  • https://opentracker.i2p.rocks:443/announce
  • http://tracker1.bt.moack.co.kr:80/announce
  • http://tracker.mywaifu.best:6969/announce
  • udp://zecircle.xyz:6969/announce
  • udp://www.peckservers.com:9000/announce